Šta je novo?

Tajni život ljubimaca (2016)

  • Začetnik teme - wolf -
  • Datum pokretanja
- wolf -

- wolf -

Učlanjen(a)
10.01.2014
Poruka
321
Tajni život ljubimaca (2016) HRSink 720p BRRip AC3 5.1




:screen:



:info:

Originalni naslov: The Secret Life of Pets
U kinu od: 18.08.2016
Dužina filma: 85 minuta(e)
Država/Godina: USA/2016
Žanr: animirani, komedija
Glumci: Bojan Navojec, Daria Knez Rukavina, Dušan Bućan, Ljubomir Kerekeš
Redatelj: Chris Renaud
Dobna preporuka: »Svi uzrasti«

Illumination Entertainment i Universal Pictures donose animirani film Tajni život ljubimaca, komediju o životu ljubimaca koji se događa nakon što njihovi vlasnici odu na posao ili u školu.

:download:

Kod:
http://uptobox.com/lxf9x6kurtlf
 
Poslednja izmena:
S

simark

Učlanjen(a)
05.09.2009
Poruka
188
Тајне авантуре кућних љубимаца 1
на српском и енглеском језику
The Secret Life of Pets 1

Као увод у други део на српском језику ево најпре старијег - првог дела цртаног филма.
Лошији биоскопски српски звук (донекле разумљив) и солидан снимак више резолуције.
Остављен је и енглески звук (проверите редослед), а ускоро следи други део цртаног...



Complete name : Тајне авантуре кућних љубимаца био-Secret.Life.of.Pets.2016.720p.HDRiP-simark.mkv

File size : 802 MiB
Duration : 1 h 26 min

Video
Codec ID : V_MPEG4/ISO/AVC
Bit rate : 1 159 kb/s
Width : 1 280 pixels
Height : 688 pixels
Display aspect ratio : 1.85:1
Frame rate : 29.970 (30000/1001) FPS
Stream size : 716 MiB (89%)
Writing library : x264 core 133 r2334 a3ac64b

Audio #1
Codec ID : A_AAC-2
Bit rate : 64.0 kb/s
Channel(s) : 2 channels
Sampling rate : 44.1 kHz / 22.05 kHz
Stream size : 39.6 MiB (5%)
Language : English

Audio #2
Codec ID : A_AAC-2
Bit rate : 76.7 kb/s
Channel(s) : 2 channels
Sampling rate : 48.0 kHz
Stream size : 45.0 MiB (6%)
Language : Serbian




Hidden content
You need to react to this post in order to see this content.
Нема шифре, ускоро и одличан други део...




 
Top