Šta je novo?
Član
Učlanjen(a)
09.05.2011
Poruka
7.549
************************************************************
Taeter City (2012) UNCUT BRRip x264 AC3-NewEncode
File Size: 1,53 GiB

************************************************************

sli.jpg


INFO:

General
Complete name : Taeter City 2012 UNCUT BRRip x264 AC3-NewEncode.mkv
Format : Matroska
Format version : Version 2
File size : 1.01 GiB
Duration : 1h 12mn
Overall bit rate mode : Variable
Overall bit rate : 1 985 Kbps
Encoded date : UTC 2014-03-05 20:45:42
Writing application : mkvmerge v6.5.0 ('Isn't she lovely') built on Oct 20 2013 12:50:05
Writing library : libebml v1.3.0 + libmatroska v1.4.1

Video
ID : 1
Format : AVC
Format/Info : Advanced Video Codec
Format profile : [email protected]
Format settings, CABAC : Yes
Format settings, ReFrames : 3 frames
Codec ID : V_MPEG4/ISO/AVC
Duration : 1h 12mn
Bit rate mode : Variable
Bit rate : 1 562 Kbps
Maximum bit rate : 40.0 Mbps
Width : 720 pixels
Height : 400 pixels
Display aspect ratio : 16:9
Frame rate mode : Constant
Frame rate : 50.000 fps
Color space : YUV
Chroma subsampling : 4:2:0
Bit depth : 8 bits
Scan type : Progressive
Bits/(Pixel*Frame) : 0.108
Stream size : 814 MiB (79%)
Writing library : x264 core 138 r2358 9e941d1

Audio
ID : 2
Format : AC-3
Format/Info : Audio Coding 3
Mode extension : CM (complete main)
Format settings, Endianness : Big
Codec ID : A_AC3
Duration : 1h 12mn
Bit rate mode : Constant
Bit rate : 384 Kbps
Channel(s) : 2 channels
Channel positions : Front: L R
Sampling rate : 48.0 KHz
Bit depth : 16 bits
Compression mode : Lossy
Stream size : 200 MiB (19%)
Language : English
Default : Yes
Forced : No

iMDB:
Kod:
http://www.imdb.com/title/tt2306836/


dddd.png


Single Extraction | No Password | Interchangeable Links: | Working 100% |

Kod:
http://uploaded.net/file/eu8thcej/Taeter.City.2012.BRRip.part1.rar
http://uploaded.net/file/ghis9v67/Taeter.City.2012.BRRip.part2.rar
http://uploaded.net/file/qjqwfsok/Taeter.City.2012.BRRip.part3.rar

http://rapidgator.net/file/d83d0e4565072affeed6fe6dc59cde33/Taeter.City.2012.BRRip.part1.rar.html
http://rapidgator.net/file/2f7cc23ea07aa2f5f4f85effb712d9ca/Taeter.City.2012.BRRip.part2.rar.html
http://rapidgator.net/file/8f263cb132f21b71705bb6600657338d/Taeter.City.2012.BRRip.part3.rar.html

http://k2s.cc/file/a0bed7589dc7a/Taeter.City.2012.BRRip.part1.rar
http://k2s.cc/file/ec1c1996386f5/Taeter.City.2012.BRRip.part2.rar
http://k2s.cc/file/05956446e7f03/Taeter.City.2012.BRRip.part3.rar


I HAVE BACKUP, DONT WORRY ABOUT DEAD LINKS, PLEASE SEND ME PM, AND I WILL REUP ANY LINK
 
Top