Šta je novo?

Sutjeska aka The Battle of Sutjeska (1973)

  • Začetnik teme Wolf 13
  • Datum pokretanja
Wolf 13

Wolf 13

MODERATOR
Učlanjen(a)
10.10.2009
Poruka
13.278
Sutjeska (1973) 720p Ktv Remastered AC3 5.1 x264 by Wolf
(MKV)



Kod:
  https://www.imdb.com/title/tt0070758/
General
Unique ID : 33342786448802200724902811509712987548 (0x1915964B35A0FEA65E6BE9A11D63A59C)
Complete name : Sutjeska (1973) 720p Ktv Remastered AC3 5.1 x264 by Wolf.mkv
Format : Matroska
Format version : Version 4
File size : 1.52 GiB
Duration : 2 h 3 min
Overall bit rate : 1 758 kb/s
Encoded date : UTC 2019-01-04 08:05:26 / UTC 2019-01-03T15:54:45Z
Writing application : mkvmerge v29.0.0 ('Like It Or Not') 64-bit
Writing library : libebml v1.3.6 + libmatroska v1.4.9 / Lavf57.7.2

Video
ID : 1
Format : AVC
Format/Info : Advanced Video Codec
Format profile : [email protected]
Format settings : CABAC / 8 Ref Frames
Format settings, CABAC : Yes
Format settings, ReFrames : 8 frames
Codec ID : V_MPEG4/ISO/AVC
Duration : 2 h 3 min
Bit rate : 1 500 kb/s
Width : 1 280 pixels
Height : 512 pixels
Display aspect ratio : 2.500
Frame rate mode : Constant
Frame rate : 29.970 (30000/1001) FPS
Color space : YUV
Chroma subsampling : 4:2:0
Bit depth : 8 bits
Scan type : Progressive
Bits/(Pixel*Frame) : 0.076
Stream size : 1.27 GiB (83%)
Title : Sutjeska (1973)
Writing library : x264 core 155 r2901 7d0ff22
Encoding settings : cabac=1 / ref=8 / deblock=1:-1:-1 / analyse=0x3:0x133 / me=umh / subme=9 / psy=1 / psy_rd=1.00:0.15 / mixed_ref=1 / me_range=16 / chroma_me=1 / trellis=2 / 8x8dct=1 / cqm=0 / deadzone=21,11 / fast_pskip=1 / chroma_qp_offset=-3 / threads=6 / lookahead_threads=1 / sliced_threads=0 / nr=0 / decimate=1 / interlaced=0 / bluray_compat=0 / constrained_intra=0 / bframes=3 / b_pyramid=2 / b_adapt=2 / b_bias=0 / direct=3 / weightb=1 / open_gop=0 / weightp=2 / keyint=300 / keyint_min=30 / scenecut=40 / intra_refresh=0 / rc_lookahead=60 / rc=2pass / mbtree=1 / bitrate=1500 / ratetol=1.0 / qcomp=0.60 / qpmin=0 / qpmax=69 / qpstep=4 / cplxblur=20.0 / qblur=0.5 / vbv_maxrate=300000 / vbv_bufsize=300000 / nal_hrd=none / filler=0 / ip_ratio=1.40 / aq=1:1.00
Language : Serbian
Default : Yes
Forced : No
Color range : Limited
Color primaries : BT.709
Transfer characteristics : BT.709
Matrix coefficients : BT.709
Statistics Tags Issue : mkvmerge v29.0.0 ('Like It Or Not') 64-bit 2019-01-04 08:05:26 / mkvmerge v29.0.0 ('Like It Or Not') 64-bit 2019-01-04 08:05:26 / UTC 2019-01-03T15:54:45Z
FromStats_BitRate : 1500350
FromStats_Duration : 02:03:28.033000000
FromStats_FrameCount : 221985
FromStats_StreamSize : 1389330430

Audio
ID : 2
Format : E-AC-3
Format/Info : Enhanced AC-3
Commercial name : Dolby Digital Plus
Codec ID : A_EAC3
Duration : 2 h 3 min
Bit rate mode : Constant
Bit rate : 256 kb/s
Channel(s) : 6 channels
Channel layout : L R C LFE Ls Rs
Sampling rate : 48.0 kHz
Frame rate : 31.250 FPS (1536 SPF)
Compression mode : Lossy
Stream size : 226 MiB (15%)
Title : Sutjeska (1973)
Language : Serbian
Service kind : Complete Main
Default : Yes
Forced : No
Statistics Tags Issue : mkvmerge v29.0.0 ('Like It Or Not') 64-bit 2019-01-04 08:05:26 / mkvmerge v29.0.0 ('Like It Or Not') 64-bit 2019-01-04 08:05:26 / UTC 2019-01-03T15:54:45Z
FromStats_BitRate : 256000
FromStats_Duration : 02:03:29.152000000
FromStats_FrameCount : 231536
FromStats_StreamSize : 237092864

Hidden content
You need to react to this post in order to see this content.

 
Poslednja izmena:
vragolancica

vragolancica

UREDNIK
Učlanjen(a)
22.06.2009
Poruka
2.482

Jugoslovenski ratni film iz 1973. godine u režiji Stipe Delića, snimljen povodom tridesetogodišnjice bitke na Sutjesci. Važi za jedno od najskupljih ostvarenja u istoriji kinematografije SFR Jugoslavije. (1973)

Rekonstrukcija jedne od najmučnijih vojnih operacija koje su se dogodile na teritoriji bivše Jugoslavije, u kojoj je poginulo više od sedam hiljada boraca, i sa jedne i sa druge strane (među poginulima je bio i narodni heroj Sava Kovačević).

Na prvom programu Javnog servisa biće prikazana remasterizovana verzija.

Film je poznat i po tome što je Josip Broz Tito aktivno učestvovao u njegovom snimanju, insistirajući da njegov lik tumači poznati britanski glumac Ričard Barton.

U glavnim ulogama: Ričard Barton, Ljuba Tadić, Velimir Bata Živojinović, Boris Dvornik, Milena Dravić, Ljubiša Samardžić...



Hidden content
You need to reply to this thread or react to this post in order to see this content.
Pass: serbianforum​
 
Top