Šta je novo?
SerbianForum

Dobrodošli na SerbianForum.org, mjesto na kojem možete pronaći apsolutno sve, mjesto druženja i odlične zabave!

Štrumfovi i izgubljeno selo (2017)

  • Začetnik teme xandor
  • Datum pokretanja
joca64

joca64

UREDNIK
Štrumfovi i izgubljeno selo (2017) 720p.BluRay.x264




MOVIE INFORMATION:
Director: Kelly Asbury
Stars: Demi Lovato, Rainn Wilson, Joe Manganiello
Genres: Animation, Adventure, Comedy
Language: Sinhronizovano na Srpski
Format: Matroska
File Size: 866 MB
Resolution: 1280x694
Runtime: 1 h 29 min

RADNJA FILMA:
Štrumpfeta će se uz pomoć tajanstvene karte i u pratnji svojih najboljih prijatelja
(Kefala, Trape i Grubera) upustiti u uzbudljivu avanturu kroz Zabranjenu šumu,
ispunjenu magičnim stvorenjima, kako bi pronašla misteriozno skriveno selo, prije nego
što to učini zločesti čarobnjak Gargamel. Upustivši se na ovo neverovatno putovanje
ispunjeno uzbuđenjima i opasnostima, naši junaci uskoro će otkriti najštrumpfastičniju
tajnu u svojoj istoriji!

MOVIE SCREENSHOTS:




YOUTUBE:


IMDB:

Kod:
http://www.imdb.com/title/tt2398241/
DOWNLOAD:

Hidden content
You need to react to this post in order to see this content.
 
S

simark

Штрумфови и изгубљено село
на српском језику у две верзије
Smurfs : lost village (serbian 2017)

Две верзије на српском језику, ниске (DivX) и високе резолуције (1080p).
Одличан српски звук, одговарајући за сваку верзију. Уживајте...

Ниска резолуција, стерео звук:

Complete name : Штрумфови и изг.село-Smurfs.The.Lost.Village.2017.HDRip.XViD.Mp3-simark.avi

File size : 734 MiB
Duration : 1h 29mn

Video
Codec ID/Hint : XviD
Width : 640 pixels
Height : 344 pixels
Display aspect ratio : 1.85:1
Frame rate : 23.976 fps
Writing library : XviD 64

Audio
Codec ID/Hint : MP3
Bit rate : 192 Kbps
Channel(s) : 2 channels
Sampling rate : 48.0 KHz
Stream size : 123 MiB (17%)
Language : Serbian

Hidden content
You need to react to this post in order to see this content.


Висока резолуција, шестоканални звук:

Complete name : Штрумфови и изг.село-Smurfs The Lost Village 2017 1080p WEBRip 1.3 GB.Ac3-simark.mkv

File size : 1.31 GiB
Duration : 1h 29mn

Video
Codec ID : V_MPEG4/ISO/AVC
Bit rate : 1 768 Kbps
Width : 1 920 pixels
Height : 1 028 pixels
Display aspect ratio : 1.85:1
Frame rate : 23.976 (24000/1001) fps
Stream size : 1.11 GiB (88%)
Writing library : x264 core 148 r2721 72d53ab

Audio
Codec ID : A_AC3
Bit rate : 320 Kbps
Channel(s) : 6 channels
Sampling rate : 48.0 KHz
Stream size : 205 MiB (15%)
Language : Serbian

Hidden content
You need to react to this post in order to see this content.
Нема шифри...
 
Poslednja izmena:
Top