Šta je novo?
SerbianForum

Dobrodošli na SerbianForum.org, mjesto na kojem možete pronaći apsolutno sve, mjesto druženja i odlične zabave!

Stolen princess Ruslan and Ludmila aka Ukradena Princeza (2018)

  • Začetnik teme simark
  • Datum pokretanja
S

simark

Украдена принцеза - НОВИ српски звук
Викрадена принцеса: Руслан і Людмила
Stolen Princess : Ruslan and Ludmila 2018
Нови звук српске синхронизације, одличан. У вишој резолуцији, остављен енглески звук,
а величина фајла још мања него код претходне верзије. Пост је комплетиран, уживајте...



Complete name :Украдена принцеза нов - The Stolen Princess 2018 720p WEB-HD 725 MB Dual-simark.mkv

File size : 726 MiB
Duration : 1 h 30 min

Video
Codec ID : V_MPEG4/ISO/AVC
Bit rate : 903 kb/s
Width : 1 280 pixels
Height : 536 pixels
Display aspect ratio : 2.40:1
Frame rate : 24.000 FPS
Stream size : 587 MiB (81%)
Writing library : x264 core 152 r2851 ba24899

Audio #1
Codec ID : A_AAC-2
Bit rate : 115 kb/s
Channel(s) : 2 channels
Sampling rate : 48.0 kHz
Stream size : 74.5 MiB (10%)
Language : Serbian

Audio #2
Codec ID : A_AAC-2
Bit rate : 96.0 kb/s
Channel(s) : 2 channels
Sampling rate : 48.0 kHz
Stream size : 62.5 MiB (9%)
Language : English


Hidden content
You need to react to this post in order to see this content.
Нема шифре...
 
Poslednja izmena:
Top