Šta je novo?
Član
Učlanjen(a)
24.09.2010
Poruka
841


Somewhere 2010 DVDRip XviD-iLG
Genre: Drama
Languages: English / Italian
Cast: Stephen Dorff / Chris Pontius / Erin Wasson…
Runtime: 97 minutes
Ratings: IMDB: 7.0 (1,588 votes) | RT: 80% (9 reviews)


Somewhere.2010.DVDRip.XviD-iLG
1 CD | 700.17 MB | i-smwhr
Quality: XviD, 624×336@901 kb/s | MP3, 128 kb/s VBR
Hollywood actor Johnny Marco, nested in his luxury hotel of choice, is a stimulated man. Drinking, parties and women keep a creeping boredom under wraps in between jobs. He is the occasional father of a bright girl, Cleo, who may be spoiled but doesn’t act it. When Cleo’s mother drops her off and leaves town, Johnny brings her along for the ride, but can he fit an 11-year-old girl into his privileged lifestyle?


Kod:
http://www.duckload.com/download/1612880/i-smwhr.avi

http://www.fileserve.com/file/NvdCSq6/i-smwhr.avi

http://www.filesonic.com/file/45629145/i-smwhr.avi

http://www.easy-share.com/1913353433/i-smwhr.av

Kod:
http://www.fileserve.com/file/ac6w8vU/Somewhere.2010.DVDRip.XviD-iLG.avi

http://hotfile.com/dl/91127993/1e0ce5e/Somewhere.2010.DVDRip.XviD-iLG.avi.html

http://www.MegaShare.com/2844826
 
Član
Učlanjen(a)
22.12.2010
Poruka
16
Somewhere (2010) BDRip.XviD.AC3.HQ.Hive-CM8

88166276.jpg


NFO:
Kod:
General
Format                           : AVI
Format/Info                      : Audio Video Interleave
File size                        : 1.48 GiB
Duration                         : 1h 38mn
Overall bit rate                 : 2 157 Kbps
Writing application              : Nandub v1.0rc2
Writing library                  : Nandub build 1853/release

Video
ID                               : 0
Format                           : MPEG-4 Visual
Format profile                   : Advanced Simple@L5
Format settings, BVOP            : Yes
Format settings, QPel            : Yes
Format settings, GMC             : No warppoints
Format settings, Matrix          : Default (H.263)
Muxing mode                      : Packed bitstream
Codec ID                         : XVID
Codec ID/Hint                    : XviD
Duration                         : 1h 38mn
Bit rate                         : 1 700 Kbps
Width                            : 720 pixels
Height                           : 400 pixels
Display aspect ratio             : 16:9
Frame rate                       : 23.976 fps
Color space                      : YUV
Chroma subsampling               : 4:2:0
Bit depth                        : 8 bits
Scan type                        : Progressive
Bits/(Pixel*Frame)               : 0.246
Stream size                      : 1.17 GiB (79%)
Writing library                  : XviD 1.2.1 (UTC 2008-12-04)

Audio
ID                               : 1
Format                           : AC-3
Format/Info                      : Audio Coding 3
Mode extension                   : CM (complete main)
Codec ID                         : 2000
Duration                         : 1h 38mn
Bit rate mode                    : Constant
Bit rate                         : 448 Kbps
Channel(s)                       : 6 channels
Channel positions                : Front: L C R, Side: L R, LFE
Sampling rate                    : 48.0 KHz
Bit depth                        : 16 bits
Stream size                      : 316 MiB (21%)
Alignment                        : Split accross interleaves
Interleave, duration             : 42 ms (1.00 video frame)
Interleave, preload duration     : 500 ms

http://www.imdb.com/title/tt1421051/

Screens:
sososo.png


sososososo.png


sosososososo.png


Download:
Kod:
Hotfile.com:
http://hotfile.com/dl/92184263/8bcb4dd/smh-m.part1.rar.html
http://hotfile.com/dl/92184519/d2b6061/smh-m.part2.rar.html
http://hotfile.com/dl/92184886/9baf65f/smh-m.part3.rar.html
http://hotfile.com/dl/92185202/d8b341a/smh-m.part4.rar.html
http://hotfile.com/dl/92185251/8d5695d/smh-m.part5.rar.html

Fileserve.com:
http://www.fileserve.com/file/afTtYzg/smh-m.part1.rar
http://www.fileserve.com/file/eqsfchg/smh-m.part2.rar
http://www.fileserve.com/file/yeJrrvX/smh-m.part3.rar
http://www.fileserve.com/file/fdet4TN/smh-m.part4.rar
http://www.fileserve.com/file/k7etmFB/smh-m.part5.rar

no pass

800MB parts:
Kod:
Fileserve.com:
http://www.fileserve.com/file/n6Y2yeR/smh10-m.part1.rar
http://www.fileserve.com/file/HF9ZDNt/smh10-m.part2.rar
http://www.fileserve.com/file/Ufv95tt/smh10-m.part3.rar

no pass
 
Top