Šta je novo?
SerbianForum

Dobrodošli na SerbianForum.org, mjesto na kojem možete pronaći apsolutno sve, mjesto druženja i odlične zabave!

Snowtime aka Време је за грудвање (2015)

  • Začetnik teme simark
  • Datum pokretanja
S

simark

Време је за грудвање
на српском језику
Snowtime!

Права тема за ове хладне дане после Божића . Канадски цртани прављен по играном филму.
На српском језику и у вишој резолуцији са одличним српским (и енглеским) звуком. Уживајте...



Complete name : Време је за грудвање - Snowtime.2015.720p.BRRip.x264.AAC.Dual-simark.mkv

File size : 692 MiB
Duration : 1 h 22 min

Video
Codec ID : V_MPEG4/ISO/AVC
Bit rate : 949 kb/s
Width : 1 280 pixels
Height : 536 pixels
Display aspect ratio : 2.40:1
Frame rate : 23.976 FPS
Stream size : 558 MiB (81%)

Audio #1
Codec ID : A_AAC-2
Bit rate : 128 kb/s
Channel(s) : 2 channels
Sampling rate : 48.0 kHz
Stream size : 75.2 MiB (11%)
Language : Serbian

Audio #2
Codec ID : A_AAC-2
Bit rate : 96.0 kb/s
Channel(s) : 2 channels
Sampling rate : 48.0 kHz
Stream size : 56.5 MiB (8%)
Language : English


Hidden content
You need to react to this post in order to see this content.
Нема шифре...
 
Top