Šta je novo?
SerbianForum

This is a sample guest message. Register a free account today to become a member! Once signed in, you'll be able to participate on this site by adding your own topics and posts, as well as connect with other members through your own private inbox!

  • Hvala svima na 1 900 000+ postova & 500 000+ tema!

Snow white and the seven dwarfs aka Снежана и седам патуљака (1937)

  • Začetnik teme simark
  • Datum pokretanja
S

simark

#1
Снежана и седам патуљака
- на српском у широком екрану
Snow white and the seven dwarfs-1937
snow_white_and_the_7_dwarfs_serbian_dvd_cover_by_credomusic-d7curyc.jpg

Један од најстаријих Дизнијевих цртаних у боји, и најбољих свакако - у новом издању.
Са широким снимком (widescreen) у вишој резолуцији (HD) и одличном екипом глумаца
за досад непознату српску синхронизацију. Остављен је и енглески звук, уживајте...

info.png

Complete name :Снежана и седам патуљака - Snow White And The Seven Dwarfs (1937) 1080p-H264-AAC-Dual to788p-simark.mkv

File size : 873 MiB
Duration : 1 h 23 min

Video
Codec ID : V_MPEG4/ISO/AVC
Bit rate : 1 210 kb/s
Width : 1 280 pixels
Height : 788 pixels
Display aspect ratio : 16:10
Frame rate : 23.976 (24000/1001) FPS
Stream size : 721 MiB (83%)
Writing library : x264 core 142

Audio #1
Codec ID : A_AAC-2
Bit rate : 128 kb/s
Channel(s) : 2 channels
Sampling rate : 48.0 kHz
Stream size : 76.0 MiB (9%)
Language : Serbian

Audio #2
Codec ID : A_AAC-1
Bit rate : 124 kb/s
Channel(s) : 2 channels
Sampling rate : 48.0 kHz
Stream size : 73.9 MiB (8%)
Language : English

Download.png

You need to like this in order to view this content.
Нема шифре...
 

Top