Šta je novo?
SerbianForum

This is a sample guest message. Register a free account today to become a member! Once signed in, you'll be able to participate on this site by adding your own topics and posts, as well as connect with other members through your own private inbox!

  • Hvala svima na 1 900 000+ postova & 500 000+ tema!

Smrt coveka na Balkanu aka Death of a Man in the Balkans (2012)

  • Začetnik teme Smoki1950
  • Datum pokretanja
Wolf 13

Wolf 13

MODERATOR
#2
Smrt coveka na Balkanu (2012) DVDrip E-AC3 x264 by Wolf
(MKV)

VDv9RYs.jpg


Kod:
 https://www.imdb.com/title/tt2113768/
General
Unique ID : 241050225676975116517044512414434114217 (0xB55895B3B345D6471EBC990B16E4BAA9)
Complete name : Smrt coveka na Balkanu (2012) DVDrip E-AC3 x264 by Wolf.mkv
Format : Matroska
Format version : Version 4 / Version 2
File size : 945 MiB
Duration : 1 h 15 min
Overall bit rate : 1 758 kb/s
Encoded date : UTC 2018-08-10 12:53:11 / UTC 2018-08-10T11:27:33Z
Writing application : mkvmerge v25.0.0 ('Prog Noir') 64-bit
Writing library : libebml v1.3.6 + libmatroska v1.4.9 / Lavf57.7.2

Video
ID : 1
Format : AVC
Format/Info : Advanced Video Codec
Format profile : High 10@L4.1
Format settings : CABAC / 4 Ref Frames
Format settings, CABAC : Yes
Format settings, ReFrames : 4 frames
Codec ID : V_MPEG4/ISO/AVC
Duration : 1 h 15 min
Bit rate : 1 500 kb/s
Width : 720 pixels
Height : 576 pixels
Display aspect ratio : 16:9
Frame rate mode : Constant
Frame rate : 25.000 FPS
Standard : PAL
Color space : YUV
Chroma subsampling : 4:2:0
Bit depth : 10 bits
Scan type : Progressive
Bits/(Pixel*Frame) : 0.145
Stream size : 789 MiB (83%)
Title : Smrt coveka na Balkanu (2012)
Writing library : x264 core 155 r2901 7d0ff22
Encoding settings : cabac=1 / ref=3 / deblock=1:0:0 / analyse=0x3:0x113 / me=hex / subme=7 / psy=1 / psy_rd=1.00:0.00 / mixed_ref=1 / me_range=16 / chroma_me=1 / trellis=1 / 8x8dct=1 / cqm=0 / deadzone=21,11 / fast_pskip=1 / chroma_qp_offset=-2 / threads=3 / lookahead_threads=1 / sliced_threads=0 / nr=0 / decimate=1 / interlaced=0 / bluray_compat=0 / constrained_intra=0 / bframes=3 / b_pyramid=2 / b_adapt=1 / b_bias=0 / direct=1 / weightb=1 / open_gop=0 / weightp=2 / keyint=250 / keyint_min=25 / scenecut=40 / intra_refresh=0 / rc_lookahead=40 / rc=2pass / mbtree=1 / bitrate=1500 / ratetol=1.0 / qcomp=0.60 / qpmin=0 / qpmax=81 / qpstep=4 / cplxblur=20.0 / qblur=0.5 / vbv_maxrate=150000 / vbv_bufsize=187500 / nal_hrd=none / filler=0 / ip_ratio=1.40 / aq=1:1.00
Language : Serbian
Default : Yes
Forced : No
Color range : Limited
Color primaries : BT.601 PAL
Transfer characteristics : BT.709
Matrix coefficients : BT.601
Statistics Tags Issue : mkvmerge v25.0.0 ('Prog Noir') 64-bit 2018-08-10 12:53:11 / mkvmerge v25.0.0 ('Prog Noir') 64-bit 2018-08-10 12:53:11 / UTC 2018-08-10T11:27:33Z
FromStats_BitRate : 1499791
FromStats_Duration : 01:15:11.000000000
FromStats_FrameCount : 112775
FromStats_StreamSize : 845695006

Audio
ID : 2
Format : E-AC-3
Format/Info : Enhanced Audio Coding 3
Codec ID : A_EAC3
Duration : 1 h 15 min
Bit rate mode : Constant
Bit rate : 256 kb/s
Channel(s) : 6 channels
Channel positions : Front: L C R, Side: L R, LFE
Sampling rate : 48.0 kHz
Frame rate : 187.500 FPS (256 SPF)
Compression mode : Lossy
Delay relative to video : -21 ms
Stream size : 138 MiB (15%)
Title : Smrt coveka na Balkanu (2012)
Language : Serbian
Service kind : Complete Main
Default : Yes
Forced : No
Statistics Tags Issue : mkvmerge v25.0.0 ('Prog Noir') 64-bit 2018-08-10 12:53:11 / mkvmerge v25.0.0 ('Prog Noir') 64-bit 2018-08-10 12:53:11 / UTC 2018-08-10T11:27:33Z
FromStats_BitRate : 256000
FromStats_Duration : 01:15:11.040000000
FromStats_FrameCount : 140970
FromStats_StreamSize : 144353280
k2aTdzy.png

You need to like this in order to view this content.
erfn4PP.png

gqCSK7v.jpg
 
Poslednja izmena:

Top