Šta je novo?

Segrt Hlapic (2013)

  • Začetnik teme Torrent Maniak
  • Datum pokretanja
Torrent Maniak

Torrent Maniak

MODERATOR
Učlanjen(a)
02.05.2009
Poruka
29.021
Segrt Hlapic (2013)












Šegrt Hlapić kreće na put nakon što mu je okrutni majstor Mrkonja naneo nepravdu. Na tom putu upoznaje Gitu, prelepu devojčicu iz cirkusa, siroče poput njega. Oboje doživljavaju pustolovine i poteškoće tokom putovanja. Nemaju gde spavati, nemaju hrane niti prikladne odeće, no ne boje se ničega. Hrabri su i sretni i spremni svakome pomoći. U noći punog meseca dogodi se nešto strašno i sve se promeni...

















Hidden content
You need to react to this post in order to see this content.

 
Poslednja izmena:
Wolf 13

Wolf 13

MODERATOR
Učlanjen(a)
10.10.2009
Poruka
13.255
Segrt Hlapic (2013) 720p WEBrip DD5.1 x264 by Wolf
(MKV)



Kod:
 https://www.imdb.com/title/tt2590900/
General
Unique ID : 71462250884231672973521817158112485774 (0x35C320FEBF24E61AE06DEB284D13A18E)
Complete name : Segrt Hlapic (2013) 720p WEBrip DD5.1 x264 by Wolf.mkv
Format : Matroska
Format version : Version 4
File size : 1.28 GiB
Duration : 1 h 38 min
Overall bit rate : 1 858 kb/s
Encoded date : UTC 2020-04-18 17:10:11
Writing application : mkvmerge v45.0.0 ('Heaven in Pennies') 64-bit
Writing library : libebml v1.3.10 + libmatroska v1.5.2

Video
ID : 1
Format : AVC
Format/Info : Advanced Video Codec
Format profile : [email protected]
Format settings : CABAC / 8 Ref Frames
Format settings, CABAC : Yes
Format settings, Reference : 8 frames
Codec ID : V_MPEG4/ISO/AVC
Duration : 1 h 38 min
Bit rate : 1 600 kb/s
Width : 1 280 pixels
Height : 544 pixels
Display aspect ratio : 2.35:1
Frame rate mode : Constant
Frame rate : 25.000 FPS
Color space : YUV
Chroma subsampling : 4:2:0
Bit depth : 8 bits
Scan type : Progressive
Bits/(Pixel*Frame) : 0.092
Stream size : 1.10 GiB (86%)
Title : Segrt Hlapic (2013)
Writing library : x264 core 157 r2935 545de2f
Encoding settings : cabac=1 / ref=8 / deblock=1:-1:-1 / analyse=0x3:0x133 / me=umh / subme=9 / psy=1 / psy_rd=1.00:0.15 / mixed_ref=1 / me_range=16 / chroma_me=1 / trellis=2 / 8x8dct=1 / cqm=0 / deadzone=21,11 / fast_pskip=1 / chroma_qp_offset=-3 / threads=6 / lookahead_threads=1 / sliced_threads=0 / nr=0 / decimate=1 / interlaced=0 / bluray_compat=0 / constrained_intra=0 / bframes=3 / b_pyramid=2 / b_adapt=2 / b_bias=0 / direct=3 / weightb=1 / open_gop=0 / weightp=2 / keyint=250 / keyint_min=25 / scenecut=40 / intra_refresh=0 / rc_lookahead=60 / rc=2pass / mbtree=1 / bitrate=1600 / ratetol=1.0 / qcomp=0.60 / qpmin=0 / qpmax=69 / qpstep=4 / cplxblur=20.0 / qblur=0.5 / vbv_maxrate=300000 / vbv_bufsize=300000 / nal_hrd=none / filler=0 / ip_ratio=1.40 / aq=1:1.00
Language : Croatian
Default : Yes
Forced : No
Color range : Limited
Color primaries : BT.601 PAL
Transfer characteristics : BT.709
Matrix coefficients : BT.601

Audio
ID : 2
Format : E-AC-3
Format/Info : Enhanced AC-3
Commercial name : Dolby Digital Plus
Codec ID : A_EAC3
Duration : 1 h 38 min
Bit rate mode : Constant
Bit rate : 256 kb/s
Channel(s) : 6 channels
Channel layout : L R C LFE Ls Rs
Sampling rate : 48.0 kHz
Frame rate : 31.250 FPS (1536 SPF)
Compression mode : Lossy
Stream size : 181 MiB (14%)
Title : Segrt Hlapic (2013)
Language : Croatian
Service kind : Complete Main
Default : Yes
Forced : No

Hidden content
You need to react to this post in order to see this content.

Hidden content
You need to react to this post in order to see this content.

 
Top