Šta je novo?

Secrets & Lies (1996)

Učlanjen(a)
21.06.2009
Poruka
36
Secrets & Lies (1996)

Kod:
http://www.imdb.com/title/tt0117589/

Secrets_Lies.jpg


Director: Mike Leigh
Writer: Mike Leigh
Stars: Timothy Spall, Brenda Blethyn, Phyllis Logan
Genre: Drama , Comedy
In Theaters: Feb 28, 1996 Wide
On DVD: Feb 1, 2005
Runtime: 2 hr. 22 min.

Opis

Mike Leigh-ova nominiracija za Oscara, domaća drame centrirana na crnu Optometristkinju kojaupoznaje svoju belu biološku majku - i pomaže joj da shvati e krhko tkivo tajnosti njene nova porodice

General
Format : AVI
Format/Info : Audio Video Interleave
File size : 982 MiB
Duration : 2h 21mn
Overall bit rate : 968 Kbps
Writing library : MPlayer

Video
ID : 0
Format : MPEG-4 Visual
Format profile : [email protected]
Format settings, BVOP : No
Format settings, QPel : No
Format settings, GMC : No warppoints
Format settings, Matrix : Default (H.263)
Codec ID : DX50
Codec ID/Hint : DivX 5
Duration : 2h 21mn
Bit rate : 795 Kbps
Width : 720 pixels
Height : 480 pixels
Display aspect ratio : 3:2
Frame rate : 29.970 fps
Standard : NTSC
Color space : YUV
Chroma subsampling : 4:2:0
Bit depth : 8 bits
Scan type : Interlaced
Scan order : Top Field First
Compression mode : Lossy
Bits/(Pixel*Frame) : 0.077
Stream size : 806 MiB (82%)
Writing library : Lavc51.44.0

Audio
ID : 1
Format : MPEG Audio
Format version : Version 1
Format profile : Layer 3
Mode : Joint stereo
Mode extension : MS Stereo
Codec ID : 55
Codec ID/Hint : MP3
Duration : 2h 21mn
Bit rate mode : Constant
Bit rate : 160 Kbps
Channel(s) : 2 channels
Sampling rate : 44.1 KHz
Compression mode : Lossy
Stream size : 162 MiB (17%)
Alignment : Aligned on interleaves
Interleave, duration : 26 ms (0.78 video frame)
Interleave, preload duration : 809 ms
Writing library : LAME3.97

Download:

[/color][/size]
Kod:
http://www.mediafire.com/download/3wwfzo8koumdkf2/Secrets_&_Lies_(1996).part1.rar
http://www.mediafire.com/download/6wmb6bclqz0dabk/Secrets_&_Lies_(1996).part2.rar
http://www.mediafire.com/download/7ssm2sanmhtm3zs/Secrets_&_Lies_(1996).part3.rar
http://www.mediafire.com/download/d19cd3y1n2raw2r/Secrets_&_Lies_(1996).part4.rar
http://www.mediafire.com/download/22dpq1t6swymld5/Secrets_&_Lies_(1996).part5.rar

Secrets_Lies_1996_avi_thumbs_2014_10_22_03.jpg
 
Top