Šta je novo?

Secret In Their Eyes (2015)

Član
Učlanjen(a)
09.05.2011
Poruka
7.549
Secret In Their Eyes (2015) 720p WEB-DL H264 AC3 EVO
File Size: 3.37 GiB

uvR53Wf6a0BuL1gONgRiyH9Gz5d.jpg


RELEAsEN0TEs
Kod:
General
Complete name                  : S.I.Ts.2015.720p.WEB-DL.H264.AC3-EVO.mkv
Format                         : Matroska
Format version                 : Version 4 / Version 2
File size                      : 3.38 GiB
Duration                       : 1h 51mn
Overall bit rate               : 4 332 Kbps
Movie name                     : EVO
Encoded date                   : UTC 2016-02-09 05:48:50
Writing application            : mkvmerge v6.7.0 ('Back to the Ground') 64bit built on Jan  8 2014 15:10:52
Writing library                : libebml v1.3.0 + libmatroska v1.4.1

Video
ID                             : 1
Format                         : AVC
Format/Info                    : Advanced Video Codec
Format profile                 : [email protected]
Format settings, CABAC         : No
Format settings, ReFrames      : 2 frames
Codec ID                       : V_MPEG4/ISO/AVC
Duration                       : 1h 51mn
Bit rate                       : 3 862 Kbps
Width                          : 1 280 pixels
Height                         : 532 pixels
Display aspect ratio           : 2.40:1
Frame rate mode                : Constant
Frame rate                     : 23.976 fps
Color space                    : YUV
Chroma subsampling             : 4:2:0
Bit depth                      : 8 bits
Scan type                      : Progressive
Bits/(Pixel*Frame)             : 0.237
Stream size                    : 3.01 GiB (89%)
Language                       : English
Default                        : Yes
Forced                         : No

Audio
ID                             : 2
Format                         : AC-3
Format/Info                    : Audio Coding 3
Mode extension                 : CM (complete main)
Format settings, Endianness    : Big
Codec ID                       : A_AC3
Duration                       : 1h 51mn
Bit rate mode                  : Constant
Bit rate                       : 384 Kbps
Channel count                  : 6 channels
Channel positions              : Front: L C R, Side: L R, LFE
Sampling rate                  : 48.0 KHz
Bit depth                      : 16 bits
Compression mode               : Lossy
Stream size                    : 306 MiB (9%)
Language                       : English
Default                        : Yes
Forced                         : No

IMDB Ratings : 6.3/10 >> 4.114 users >> Top 250: #N/A
Metascore: 45/100
Kod:
http://www.imdb.com/title/tt1741273/

sCREENsH0Ts

p00022.png


p00023.png


p00024.png


D0WNL0AD
Kod:
http://rapidgator.net/file/7b4843b25fb4729d7f85b366fbfb1b6b/S.I.Ts.720p.WEB-DL.EVO.part1.rar.html
http://rapidgator.net/file/1824052c5e83e67e84db7622d7b69c54/S.I.Ts.720p.WEB-DL.EVO.part2.rar.html
http://rapidgator.net/file/db4e846b674118d50b117ef96a9d454f/S.I.Ts.720p.WEB-DL.EVO.part3.rar.html
http://rapidgator.net/file/09629ab5bc67a7dad6982c40604d9661/S.I.Ts.720p.WEB-DL.EVO.part4.rar.html

http://uploaded.net/file/eq3t3g2k/S.I.Ts.720p.WEB-DL.EVO.part1.rar
http://uploaded.net/file/p0wawcms/S.I.Ts.720p.WEB-DL.EVO.part2.rar
http://uploaded.net/file/xc8ieudy/S.I.Ts.720p.WEB-DL.EVO.part3.rar
http://uploaded.net/file/0jvvxp9p/S.I.Ts.720p.WEB-DL.EVO.part4.rar

http://alfafile.net/file/HRzC/S.I.Ts.720p.WEB-DL.EVO.part1.rar
http://alfafile.net/file/HRzw/S.I.Ts.720p.WEB-DL.EVO.part2.rar
http://alfafile.net/file/HRHS/S.I.Ts.720p.WEB-DL.EVO.part3.rar
http://alfafile.net/file/HRHZ/S.I.Ts.720p.WEB-DL.EVO.part4.rar

http://nitroflare.com/view/F5A1369319D2BFB/S.I.Ts.720p.WEB-DL.EVO.part1.rar
http://nitroflare.com/view/281013E5667F5E6/S.I.Ts.720p.WEB-DL.EVO.part2.rar
http://nitroflare.com/view/78A3E2CBCAB4C35/S.I.Ts.720p.WEB-DL.EVO.part3.rar
http://nitroflare.com/view/7C05E826D65B5E0/S.I.Ts.720p.WEB-DL.EVO.part4.rar
 
Top