Šta je novo?
Član
Učlanjen(a)
09.05.2011
Poruka
7.549
=
Saving Santa (2013) 720p BluRay x264 LeechOurStuff
File Size: 1.94 GiB

=

santa.jpg



General
Complete name : los-savingsanta-720p.mkv
Format : Matroska
Format version : Version 2
File size : 1.94 GiB
Duration : 1h 23mn
Overall bit rate : 3 314 Kbps
Encoded date : UTC 2013-11-23 07:37:59
Writing application : mkvmerge v5.8.0 ('No Sleep / Pillow') built on Sep 2 2012 15:37:04
Writing library : libebml v1.2.3 + libmatroska v1.3.0

Video
ID : 1
Format : AVC
Format/Info : Advanced Video Codec
Format profile : High@L4.1
Format settings, CABAC : Yes
Format settings, ReFrames : 5 frames
Codec ID : V_MPEG4/ISO/AVC
Duration : 1h 23mn
Bit rate : 1 739 Kbps
Width : 1 280 pixels
Height : 688 pixels
Display aspect ratio : 1.85:1
Frame rate mode : Constant
Frame rate : 23.976 fps
Color space : YUV
Chroma subsampling : 4:2:0
Bit depth : 8 bits
Scan type : Progressive
Bits/(Pixel*Frame) : 0.082
Stream size : 1.02 GiB (52%)
Title : los-savingsanta-720p
Writing library : x264 core 140 r2377 1ca7bb9
Default : Yes
Forced : No

Audio
ID : 2
Format : DTS
Format/Info : Digital Theater Systems
Mode : 16
Format settings, Endianness : Big
Codec ID : A_DTS
Duration : 1h 23mn
Bit rate mode : Constant
Bit rate : 1 509 Kbps
Channel count : 6 channels
Channel positions : Front: L C R, Side: L R, LFE
Sampling rate : 48.0 KHz
Bit depth : 24 bits
Compression mode : Lossy
Stream size : 906 MiB (46%)
Title : los-savingsanta-720p-engdts
Language : English
Default : Yes
Forced : No

Kod:
http://www.imdb.com/title/tt2204315/


santa.png



DOWNLOAD:
Kod:
http://uploaded.net/file/b4qh6sd1/Savingsanta720p.part1.rar
http://uploaded.net/file/9m1edrz2/Savingsanta720p.part2.rar
http://uploaded.net/file/ek9k8lpx/Savingsanta720p.part3.rar
http://uploaded.net/file/72u00r99/Savingsanta720p.part4.rar

http://rapidgator.net/file/a0664af4c4472ad785dced3ee6f39579/Savingsanta720p.part1.rar.html
http://rapidgator.net/file/14dcd3542979cf1aeda6caac007e8bcc/Savingsanta720p.part2.rar.html
http://rapidgator.net/file/58a9272da47f3b180688ced42b129bd0/Savingsanta720p.part3.rar.html
http://rapidgator.net/file/15cd1000a1733aa69ef1a8a823fdfce2/Savingsanta720p.part4.rar.html

http://ryushare.com/hbig1ud79xaq/Savingsanta720p.part1.rar
http://ryushare.com/dba7gb2d0qml/Savingsanta720p.part2.rar
http://ryushare.com/ntte43oka2nl/Savingsanta720p.part3.rar
http://ryushare.com/leykahpcpji0/Savingsanta720p.part4.rar

http://lumfile.com/1xx8i9666oy3/Savingsanta720p.part1.rar.html
http://lumfile.com/6khwlodwzhrm/Savingsanta720p.part2.rar.html
http://lumfile.com/ukazx2t3kyto/Savingsanta720p.part3.rar.html
http://lumfile.com/zzyr91fjyoxg/Savingsanta720p.part4.rar.html

DOWNLOAD SINGL LINKS:
Kod:
http://uploaded.net/file/ah0w5tvr/SavingSanta.SingL.rar
http://rapidgator.net/file/c516757896310837ecee51dcd28800d3/SavingSanta.SingL.rar.html
http://ryushare.com/fwxskap7pnpm/SavingSanta.SingL.rar
http://lumfile.com/mir2gzu71w39/SavingSanta.SingL.rar.html
 
Top