Šta je novo?
Član
Učlanjen(a)
09.05.2011
Poruka
7.549
Save The Date (2012) LIMITED 720p BluRay X264-7SinS
File Size: 4.36 GiB


date.jpg



General
Complete name : Save.The.Date.2012.LIMITED.720p.BluRay.X264-7SinS\7s-std-720p.mkv
Format : Matroska
Format version : Version 2
File size : 4.36 GiB
Duration : 1h 36mn
Overall bit rate : 6 465 Kbps
Encoded date : UTC 2013-04-16 19:51:30
Writing application : mkvmerge v6.1.0 ('Old Devil') built on Mar 2 2013 14:32:37
Writing library : libebml v1.3.0 + libmatroska v1.4.0

Video
ID : 1
Format : AVC
Format/Info : Advanced Video Codec
Format profile : High@L4.1
Format settings, CABAC : Yes
Format settings, ReFrames : 5 frames
Codec ID : V_MPEG4/ISO/AVC
Duration : 1h 36mn
Bit rate : 4 956 Kbps
Width : 1 280 pixels
Height : 688 pixels
Display aspect ratio : 1.85:1
Frame rate mode : Constant
Frame rate : 24.000 fps
Color space : YUV
Chroma subsampling : 4:2:0
Bit depth : 8 bits
Scan type : Progressive
Bits/(Pixel*Frame) : 0.234
Stream size : 3.26 GiB (75%)
Writing library : x264 core 130 r2273 b3065e6
Language : English
Default : Yes
Forced : No

Audio
ID : 2
Format : DTS
Format/Info : Digital Theater Systems
Mode : 16
Format settings, Endianness : Big
Codec ID : A_DTS
Duration : 1h 36mn
Bit rate mode : Constant
Bit rate : 1 509 Kbps
Channel(s) : 6 channels
Channel positions : Front: L C R, Side: L R, LFE
Sampling rate : 48.0 KHz
Bit depth : 24 bits
Compression mode : Lossy
Stream size : 1.02 GiB (23%)
Language : English
Default : Yes
Forced : No

Kod:
http://www.imdb.com/title/tt1965065/

vlcsnap-2013-04-17-09h10.png


vlcsnap-2013-04-17-09h10.png


vlcsnap-2013-04-17-09h11.png



DOWNLOAD:
Kod:
http://netload.in/dateigGRAj1QapF/Save.The.Date.2012.720p.7SinS.part1.rar.htm
http://netload.in/dateik6EmYLMmRM/Save.The.Date.2012.720p.7SinS.part2.rar.htm
http://netload.in/dateiujdVOaWTOU/Save.The.Date.2012.720p.7SinS.part3.rar.htm
http://netload.in/dateiRsX4PA7hzX/Save.The.Date.2012.720p.7SinS.part4.rar.htm
http://netload.in/datei5YYIag492e/Save.The.Date.2012.720p.7SinS.part5.rar.htm
 
Poslednja izmena od urednika:
Član
Učlanjen(a)
09.05.2011
Poruka
7.549
Save the Date (2012) 720p BluRay x264 DTS-MeRCuRY
File Size: 4,39 GiB


savetheday.jpg



General
Complete name : tt1965065 720p BluRay x264 DTS-MeRCuRY.mkv
Format : Matroska
Format version : Version 4 / Version 2
File size : 4.39 GiB
Duration : 1h 36mn
Overall bit rate : 6 509 Kbps
Encoded date : UTC 2013-04-25 15:06:14
Writing application : mkvmerge v6.0.0 ('Coming Up For Air') built on Jan 20 2013 09:52:00
Writing library : libebml v1.3.0 + libmatroska v1.4.0

Video
ID : 1
Format : AVC
Format/Info : Advanced Video Codec
Format profile : High@L4.1
Format settings, CABAC : Yes
Format settings, ReFrames : 4 frames
Codec ID : V_MPEG4/ISO/AVC
Duration : 1h 36mn
Bit rate : 4 999 Kbps
Width : 1 280 pixels
Height : 688 pixels
Display aspect ratio : 1.85:1
Frame rate mode : Constant
Frame rate : 24.000 fps
Color space : YUV
Chroma subsampling : 4:2:0
Bit depth : 8 bits
Scan type : Progressive
Bits/(Pixel*Frame) : 0.237
Stream size : 3.29 GiB (75%)
Writing library : x264 core 129 r2245 bc13772
Default : Yes
Forced : No

Audio
ID : 2
Format : DTS
Format/Info : Digital Theater Systems
Mode : 16
Format settings, Endianness : Big
Codec ID : A_DTS
Duration : 1h 36mn
Bit rate mode : Constant
Bit rate : 1 509 Kbps
Channel(s) : 6 channels
Channel positions : Front: L C R, Side: L R, LFE
Sampling rate : 48.0 KHz
Bit depth : 24 bits
Compression mode : Lossy
Stream size : 1.02 GiB (23%)
Title : HDLeech.Org - MeRCuRY
Default : Yes
Forced : No

Kod:
http://www.imdb.com/title/tt1965065/

vlcsnap-2013-05-02-21h56.png


vlcsnap-2013-05-02-21h56.png


vlcsnap-2013-05-02-21h57.png



DOWNLOAD:
Kod:
http://uploaded.net/file/zj1dut1y/tt1965065.720p.MeRCuRY.part1.rar
http://uploaded.net/file/nz69ytzp/tt1965065.720p.MeRCuRY.part2.rar
http://uploaded.net/file/zaduj84o/tt1965065.720p.MeRCuRY.part3.rar
http://uploaded.net/file/675yo4hm/tt1965065.720p.MeRCuRY.part4.rar
http://uploaded.net/file/r8ih22wt/tt1965065.720p.MeRCuRY.part5.rar

http://www.filefactory.com/file/2w7yfsicoxi3/tt1965065.720p.MeRCuRY.part1.rar
http://www.filefactory.com/file/5aenfo8u26yf/tt1965065.720p.MeRCuRY.part2.rar
http://www.filefactory.com/file/5gg5pxs7szkx/tt1965065.720p.MeRCuRY.part3.rar
http://www.filefactory.com/file/6qhpk0wsm9pv/tt1965065.720p.MeRCuRY.part4.rar
http://www.filefactory.com/file/4dfa7bbktrkt/tt1965065.720p.MeRCuRY.part5.rar
 
Poslednja izmena od urednika:
Top