Šta je novo?
SerbianForum

Dobrodošli na SerbianForum.org, mjesto na kojem možete pronaći apsolutno sve, mjesto druženja i odlične zabave!

San Andreas (2015)

  • Začetnik teme Angelus
  • Datum pokretanja
Angelus

Angelus

ADMINISTRATOR


-:RELEASE NOTES:-
Quote:
Movie Title: San Andreas (2015)
Director: Brad Peyton
Stars: Alexandra Daddario, Dwayne Johnson, Carla Gugino, Colton Haynes
Release Date: 29 May 2015
Genres: Action, Drama, Thriller
Format: MatRoska (Mkv)
File Size: 650MB
Resolution: 720x304
Runtime: 01:47:32
Language: English
Subtitles: N/A
Encoder: MkvCage (MC) Team
Source: CAM.HQ-Mic.XVID.AC3.Hive-CM8




700 mb

mkv

cam
Kod:
[URL=http://extratorrent.cc/download/4220465/San+Andreas+%282015%29+CAM+HQ-Mic+650MB+-+MkvCage.torrent"]torrent[/URL]
 
Angelus

Angelus

ADMINISTRATOR

San.Andreas.2015.HQ.CAM.XVID.MP3.MRG

sample within.................

Format : AVI
Format/Info : Audio Video Interleave
File size : 1.59 GiB
Duration : 1h 47mn
Overall bit rate : 2 121 Kbps
Writing library : VirtualDub build 35491/release

Video
ID : 0
Format : MPEG-4 Visual
Format profile : Advanced Simple@L5
Format settings, BVOP : 2
Format settings, QPel : No
Format settings, GMC : No warppoints
Format settings, Matrix : Default (H.263)
Muxing mode : Packed bitstream
Codec ID : XVID
Codec ID/Hint : XviD
Duration : 1h 47mn
Bit rate : 1 916 Kbps
Width : 704 pixels
Height : 288 pixels
Display aspect ratio : 2.40:1
Frame rate : 25.000 fps
Color space : YUV
Chroma subsampling : 4:2:0
Bit depth : 8 bits
Scan type : Progressive
Compression mode : Lossy
Bits/(Pixel*Frame) : 0.378
Stream size : 1.43 GiB (90%)
Writing library : XviD 66

Audio
ID : 1
Format : MPEG Audio
Format version : Version 1
Format profile : Layer 3
Mode : Joint stereo
Mode extension : MS Stereo
Codec ID : 55
Codec ID/Hint : MP3
Duration : 1h 47mn
Bit rate mode : Constant
Bit rate : 192 Kbps
Channel(s) : 2 channels
Sampling rate : 48.0 KHz
Compression mode : Lossy
Stream size : 147 MiB (9%)
Alignment : Aligned on interleaves
Interleave, duration : 24 ms (0.60 video frame)
Interleave, preload duratio : 504 ms
Writing library : LAME3.98.4










































1.7 GB

CAM
Kod:
[URL="http://extratorrent.cc/download/4226585/San.Andreas.2015.HQ.CAM.XVID.MP3.MRG.torrent"]torrent[/URL]
 
Angelus

Angelus

ADMINISTRATOR


http://www.imdb.com/title/tt2126355/


In the aftermath of a massive earthquake in California, a rescue-chopper pilot makes a dangerous journey across the state in order to rescue his daughter.

Director: Brad Peyton
Writers: Carlton Cuse (screenplay), Andre Fabrizio (story)
Stars: Dwayne Johnson, Carla Gugino, Alexandra Daddario
Genres: Action | Drama | Thriller
Country: USA
Language: English


Release Info:

iMdB...........- http://www.imdb.com/title/tt2126355/
RELEASE DATE...- 29 May 2015 (USA)
LANGUAGE.......- English
SUBTiTLES......- N/A
RUNTiME........- 1h 45mn
SOURCE.........- 720p video / line
ViDEO CODEC....- XVID
ViDEO BiTRATE..- 2 039 Kbps
RESOLUTiON.....- 720 x 304
FRAMERATE......- 23.976 fps
SETTiNGS.......- AVI
AUDiO CODEC....- MP3 2 chnls
AUDiO BiTRATE..- 194 Kbps
FiLE SiZE......- 1.7 GB
ENCODER........- ADAM

Notes:

given a great video from someone synced, muxed over line to encode. sevreal filters used turned out nice





1.8 GB

Kod:
[URL="http://extratorrent.cc/download/4242470/San.Andreas.2015.TS.NEW.XVID-EVE.torrent"]torrent[/URL]
 
Angelus

Angelus

ADMINISTRATOR

San Andreas {2015} NEW HDTS H264 AC3-MRG

Format : AVI
Format/Info : Audio Video Interleave
File size : 1.27 GiB
Duration : 1h 47mn
Overall bit rate : 1 697 Kbps
Writing library : VirtualDub build 35491/release

Video
ID : 0
Format : AVC
Format/Info : Advanced Video Codec
Format profile : High@L3
Format settings, CABAC : Yes
Format settings, ReFrames : 4 frames
Codec ID : H264
Duration : 1h 47mn
Bit rate : 1 559 Kbps
Width : 720 pixels
Height : 320 pixels
Display aspect ratio : 2.25:1
Frame rate : 25.000 fps
Color space : YUV
Chroma subsampling : 4:2:0
Bit depth : 8 bits
Scan type : Progressive
Bits/(Pixel*Frame) : 0.271
Stream size : 1.17 GiB (92%)
Writing library : x264 core

Audio
ID : 1
Format : AC-3
Format/Info : Audio Coding 3
Mode extension : CM (complete main)
Format settings, Endianness : Big
Codec ID : 2000
Duration : 1h 47mn
Bit rate mode : Constant
Bit rate : 128 Kbps
Channel(s) : 2 channels
Channel positions : Front: L R
Sampling rate : 48.0 KHz
Compression mode : Lossy
Delay relative to video : 32ms
Stream size : 98.0 MiB (8%)
Alignment : Split accross interleaves
Interleave, duration : 40 ms (1.00 video frame)
Interleave, preload duratio : 500 ms



1.3 GB

Kod:
[URL=" http://extratorrent.cc/download/4247323/San+Andreas+%7B2015%7D+NEW+HDTS+H264+AC3-MRG.torrent "]TORRENT[/URL]
 
Top