Šta je novo?
SerbianForum

Dobrodošli na SerbianForum.org, mjesto na kojem možete pronaći apsolutno sve, mjesto druženja i odlične zabave!

Samson and Delilah (1949)

  • Začetnik teme croscorpion
  • Datum pokretanja
croscorpion

croscorpion

Član
Samson and Delilah (1949) 1080p BluRay






release : Samson.And.Delilah.1949.MULTi.1080p.BluRay.x264-ROUGH

Video
ID : 1
Format : AVC
Format/Info : Advanced Video Codec
Format profile : High@L4.0
Format settings, CABAC : Yes
Format settings, ReFrames : 4 frames
Codec ID : V_MPEG4/ISO/AVC
Duration : 2h 13mn
Bit rate : 8 487 Kbps
Width : 1 488 pixels
Height : 1 080 pixels
Display aspect ratio : 1.378
Frame rate : 23.976 fps
Color space : YUV
Chroma subsampling : 4:2:0
Bit depth : 8 bits
Scan type : Progressive
Bits/(Pixel*Frame) : 0.220
Stream size : 7.76 GiB (89%)

Audio #1
ID : 2
Format : AC-3
Format/Info : Audio Coding 3
Mode extension : CM (complete main)
Codec ID : A_AC3
Duration : 2h 13mn
Bit rate mode : Constant
Bit rate : 224 Kbps
Channel(s) : 2 channels
Channel positions : Front: L R
Sampling rate : 48.0 KHz
Bit depth : 16 bits
Compression mode : Lossy
Stream size : 214 MiB (2%)
Title : AC3 2.0
Language : French
Default : Yes
Forced : No

Audio #2
ID : 3
Format : AC-3
Format/Info : Audio Coding 3
Mode extension : CM (complete main)
Codec ID : A_AC3
Duration : 2h 13mn
Bit rate mode : Constant
Bit rate : 640 Kbps
Channel(s) : 2 channels
Channel positions : Front: L R
Sampling rate : 48.0 KHz
Bit depth : 16 bits
Compression mode : Lossy
Stream size : 613 MiB (7%)
Title : AC3 2.0
Language : English
Default : No
Forced : No

Text
ID : 4
Format : UTF-8
Codec ID : S_TEXT/UTF8
Codec ID/Info : UTF-8 Plain Text
Language : French
Default : No
Forced : No

Audio
Language : French
Language : English

Text
Language : French

imdb
Kod:
http://www.imdb.com/title/tt0041838/
subtitles
Kod:
http://www.all4divx.com/subtitles/Samson+And+Delilah+%281949%29/any/1
download
Kod:
http://uploaded.net/file/8ehhwkox/Samso.part08.rar
http://uploaded.net/file/jzmvv183/Samso.part09.rar
http://uploaded.net/file/q4l5wtxr/Samso.part07.rar
http://uploaded.net/file/c18atkfk/Samso.part05.rar
http://uploaded.net/file/pbvetkvj/Samso.part06.rar
http://uploaded.net/file/v3k1qc8x/Samso.part03.rar
http://uploaded.net/file/lie25g86/Samso.part04.rar
http://uploaded.net/file/a4ykeq8n/Samso.part01.rar
http://uploaded.net/file/kfynnr5g/Samso.part02.rar
 
Top