Šta je novo?
SerbianForum

Dobrodošli na SerbianForum.org, mjesto na kojem možete pronaći apsolutno sve, mjesto druženja i odlične zabave!

Salas u malom ritu (1976)

  • Začetnik teme Torrent Maniak
  • Datum pokretanja
Torrent Maniak

Torrent Maniak

MODERATOR
Salas u malom ritu (1976)
















„Salaš u malom ritu“ je jugoslovenski film iz 1976. godine. Režirao ga je Branko Bauer, a scenario su napisali Arsen Diklić i Branko Bauer. Film je nastao po istoimenom romanu Arsena Diklića. Nastavak ovog filma predstavlja film Zimovanje u Jakobsfeldu.

Radnja filma se odvija u jednom zabačenom selu na početku Drugog svetskog rata. Nemci sprovode grupu talaca i usput maltretiraju jednog dečaka, koji iz osvete kasnije zapali nemačko žito u pristaništu. Pošto znaju da žito nije planulo samo, Nemci sprovode istragu, koju predvodi folksdojčer Šicer. Da bi otkrio ko je zapalio žito on počinje sa terorom – uzima sve muškarce iz za taoce i počinje da strelja. Grupa dečaka, znajući da niko nije povezan s paljenjem žita pokušava da spreči tragediju.



























Hidden content
You need to react to this post in order to see this content.
 
Poslednja izmena:
Torrent Maniak

Torrent Maniak

MODERATOR
Salas u malom ritu (1976)


















Rat je stigao u zabaceno vojvodjansko selo. Nemci sprovode kroz selo grupu talaca i usputmaltretiraju jednog decaka, koji iz osvete zapali nemacko žito u pristaništu. Istragu vodi lukavipolicajac iz grada koji zatvori sve muškarce i pocinje da strelja. Bistri seoski decak, prerano shvativšisve užase rata, pomaže partizanima da oslobode uhapšenike, koji se sada listom ukljuce u pokret

















Hidden content
You need to react to this post in order to see this content.
 
Poslednja izmena:
Wolf 13

Wolf 13

MODERATOR
Salas u Malom Ritu (1975) DVDrip DD5.1 x264 by Wolf
(MKV)



Kod:
  https://www.imdb.com/title/tt0214368/
General
Unique ID : 75247557457953608724818552834194701634 (0x389C2704ABD5364A700B63D723E07D42)
Complete name : Salas u Malom Ritu (1975) DVDrip DD5.1 x264 by Wolf.mkv
Format : Matroska
Format version : Version 4
File size : 1.54 GiB
Duration : 1 h 58 min
Overall bit rate : 1 856 kb/s
Encoded date : UTC 2019-02-22 16:50:16
Writing application : mkvmerge v31.0.0 ('Dolores In A Shoestand') 64-bit
Writing library : libebml v1.3.6 + libmatroska v1.4.9 / Lavf58.20.100

Video
ID : 1
Format : AVC
Format/Info : Advanced Video Codec
Format profile : High@L5.1
Format settings : CABAC / 16 Ref Frames
Format settings, CABAC : Yes
Format settings, ReFrames : 16 frames
Codec ID : V_MPEG4/ISO/AVC
Duration : 1 h 58 min
Bit rate : 1 600 kb/s
Width : 700 pixels
Height : 572 pixels
Display aspect ratio : 16:9
Original display aspect rat : 4:3
Frame rate mode : Constant
Frame rate : 25.000 FPS
Color space : YUV
Chroma subsampling : 4:2:0
Bit depth : 8 bits
Scan type : Progressive
Bits/(Pixel*Frame) : 0.160
Stream size : 1.32 GiB (86%)
Title : Salas u Malom Ritu (1975)
Writing library : x264 core 157 r2935 545de2f
Encoding settings : cabac=1 / ref=16 / deblock=1:-1:-1 / analyse=0x3:0x133 / me=umh / subme=10 / psy=1 / psy_rd=1.00:0.15 / mixed_ref=1 / me_range=24 / chroma_me=1 / trellis=2 / 8x8dct=1 / cqm=0 / deadzone=21,11 / fast_pskip=1 / chroma_qp_offset=-3 / threads=6 / lookahead_threads=1 / sliced_threads=0 / nr=0 / decimate=1 / interlaced=0 / bluray_compat=0 / constrained_intra=0 / bframes=8 / b_pyramid=2 / b_adapt=2 / b_bias=0 / direct=3 / weightb=1 / open_gop=0 / weightp=2 / keyint=250 / keyint_min=25 / scenecut=40 / intra_refresh=0 / rc_lookahead=60 / rc=2pass / mbtree=1 / bitrate=1600 / ratetol=1.0 / qcomp=0.60 / qpmin=0 / qpmax=69 / qpstep=4 / cplxblur=20.0 / qblur=0.5 / vbv_maxrate=300000 / vbv_bufsize=300000 / nal_hrd=none / filler=0 / ip_ratio=1.40 / aq=1:1.00
Language : Serbian
Default : Yes
Forced : No
Color range : Limited
Color primaries : BT.601 PAL
Transfer characteristics : BT.709
Matrix coefficients : BT.601

Audio
ID : 2
Format : E-AC-3
Format/Info : Enhanced AC-3
Commercial name : Dolby Digital Plus
Codec ID : A_EAC3
Duration : 1 h 58 min
Bit rate mode : Constant
Bit rate : 256 kb/s
Channel(s) : 6 channels
Channel layout : L R C LFE Ls Rs
Sampling rate : 48.0 kHz
Frame rate : 31.250 FPS (1536 SPF)
Compression mode : Lossy
Stream size : 217 MiB (14%)
Title : Salas u Malom Ritu (1975)
Language : Serbian
Service kind : Complete Main
Default : Yes
Forced : No

Hidden content
You need to react to this post in order to see this content.

 
Top