Šta je novo?

Safety Not Guaranteed (2012)

  • Začetnik teme CyberWarez
  • Datum pokretanja
CyberWarez

CyberWarez

Član
Učlanjen(a)
09.05.2011
Poruka
7.549
Safety Not Guaranteed (2012) LIMITED 720p BluRay x264-SPARKS
File Size: 4.37 GiB






Kod:
[B]General
Complete name                            : safety.not.guaranteed.2012.limited.720p.bluray.x264-sparks.mkv
Format                                   : Matroska
Format version                           : Version 2
File size                                : 4.37 GiB
Duration                                 : 1h 25mn
Overall bit rate                         : 7 290 Kbps
Writing application                      : mkvmerge v4.1.1 ('Bouncin' Back') built on Jul  3 2010 22:54:08
Writing library                          : libebml v1.0.0 + libmatroska v1.0


Video
ID                                       : 1
Format                                   : AVC
Format/Info                              : Advanced Video Codec
Format profile                           : [email protected]
Format settings, CABAC                   : Yes
Format settings, ReFrames                : 5 frames
Codec ID                                 : V_MPEG4/ISO/AVC
Duration                                 : 1h 25mn
Bit rate                                 : 5 780 Kbps
Width                                    : 1 280 pixels
Height                                   : 544 pixels
Display aspect ratio                     : 2.35:1
Frame rate mode                          : Constant
Frame rate                               : 23.976 fps
Color space                              : YUV
Chroma subsampling                       : 4:2:0
Bit depth                                : 8 bits
Scan type                                : Progressive
Bits/(Pixel*Frame)                       : 0.346
Stream size                              : 3.38 GiB (77%)
Writing library                          : x264 core 128 r2216 198a7ea
Language                                 : English
Default                                  : Yes
Forced                                   : No


Audio
ID                                       : 2
Format                                   : DTS
Format/Info                              : Digital Theater Systems
Codec ID                                 : A_DTS
Duration                                 : 1h 25mn
Bit rate mode                            : Constant
Bit rate                                 : 1 510 Kbps
Channel(s)                               : 6 channels
Channel positions                        : Front: L C R, Side: L R, LFE
Sampling rate                            : 48.0 KHz
Bit depth                                : 24 bits
Compression mode                         : Lossy
Stream size                              : 926 MiB (21%)
Language                                 : English
Default                                  : Yes
Forced                                   : No[/B]

Plot: Darius is a young intern at a Seattle-based magazine and jumps at the chance to investigate the author of a classified ad seeking someone to travel back in time with. Along with Jeff, the staff writer, and Arnau, a fellow intern, the three go on a road trip to a coastal town. While Jeff just wants to chase after his high school crush and Arnau wants some kind of life experience, Darius spends her time with Kenneth, a man who believes that he has built a time machine. The closer they become and the more they understand about each other, the less clear it becomes if Kenneth is just crazy or if he actually is going to successfully travel back in time.
Genre: Comedy
IMDB rating: 7.6/10 from 3,041 users
Directed by: Colin Trevorrow
Starring: Aubrey Plaza, Jake Johnson and Karan Soni

Kod:
http://www.imdb.com/title/tt1862079/












DOWNLOAD:
Kod:
http://www.netload.in/datei1BpvJR57oz/tt1862079.720p.part1.rar.htm
http://www.netload.in/dateiKvIdVyfNEj/tt1862079.720p.part2.rar.htm
http://www.netload.in/dateigeVtvICIch/tt1862079.720p.part3.rar.htm
http://www.netload.in/datei8vVKXK7QMy/tt1862079.720p.part4.rar.htm
http://www.netload.in/dateiDwHjOSmfUw/tt1862079.720p.part5.rar.htm
 
Poslednja izmena od urednika:
Top