Šta je novo?

Sadko aka Садко (2017)

Učlanjen(a)
05.09.2009
Poruka
239
С а д к о на српском S a d k o
W7rU6yq.jpg

Руски цртани филм на српском језику. У нижој резолуцији и са остављеним руским звуком као додатним,
хвала `bookworm020` за српски звук.


info.png

Complete name : Садко - Sadko.2017.WEB-DLRip.Dual-simark.mkv

File size : 794 MiB
Duration : 1 h 17 min

Video
Format : MPEG-4 Visual
Codec ID : V_MS/VFW/FOURCC / XVID
Bit rate : 1 167 kb/s
Width : 720 pixels
Height : 304 pixels
Display aspect ratio : 2.35:1
Frame rate : 25.000 FPS
Stream size : 650 MiB (82%)
Writing library : XviD 73

Audio #1
Format : AAC
Bit rate : 128 kb/s
Channel(s) : 2 channels
Sampling rate : 48.0 kHz
Stream size : 71.2 MiB (9%)
Language : Serbian

Audio #2
Format : AAC
Bit rate : 128 kb/s
Channel(s) : 2 channels
Sampling rate : 48.0 kHz
Stream size : 71.3 MiB (9%)
Language : Russian


Download.png

Hidden content
You need to react to this post in order to see this content.
Нема шифре...
 
Poslednja izmena:
Top