Šta je novo?
SerbianForum

Dobrodošli na SerbianForum.org, mjesto na kojem možete pronaći apsolutno sve, mjesto druženja i odlične zabave!

Sabotage (2014)

  • Začetnik teme CyberWarez
  • Datum pokretanja
CyberWarez

CyberWarez

Član
************************************************************
Sabotage (2014) 1080p BluRay DTS x264 EAGLE
File Size: 8.43 GiB

************************************************************



INFO:
Kod:
General
Complete name                            : Sabotage.2014.1080p.BluRay.DTS.x264-EAGLE.mkv
Format                                   : Matroska
Format version                           : Version 4 / Version 2
File size                                : 8.43 GiB
Duration                                 : 1h 49mn
Overall bit rate                         : 11.0 Mbps
Movie name                               : EAGLE
Encoded date                             : UTC 2014-09-23 11:54:44
Writing application                      : mkvmerge v7.1.0 ('Good Love') 32bit built on Jul 27 2014 12:59:18
Writing library                          : libebml v1.3.0 + libmatroska v1.4.1

Video
ID                                       : 1
Format                                   : AVC
Format/Info                              : Advanced Video Codec
Format profile                           : High@L4.0
Format settings, CABAC                   : Yes
Format settings, ReFrames                : 4 frames
Codec ID                                 : V_MPEG4/ISO/AVC
Duration                                 : 1h 49mn
Bit rate                                 : 9 499 Kbps
Width                                    : 1 920 pixels
Height                                   : 1 040 pixels
Display aspect ratio                     : 1.85:1
Frame rate mode                          : Constant
Frame rate                               : 23.976 fps
Color space                              : YUV
Chroma subsampling                       : 4:2:0
Bit depth                                : 8 bits
Scan type                                : Progressive
Bits/(Pixel*Frame)                       : 0.198
Stream size                              : 7.11 GiB (84%)
Title                                    : EAGLE
Writing library                          : x264 core 142 r2479 dd79a61
Language                                 : English
Default                                  : Yes
Forced                                   : No

Audio
ID                                       : 2
Format                                   : DTS
Format/Info                              : Digital Theater Systems
Mode                                     : 16
Format settings, Endianness              : Big
Codec ID                                 : A_DTS
Duration                                 : 1h 49mn
Bit rate mode                            : Constant
Bit rate                                 : 1 509 Kbps
Channel(s)                               : 6 channels
Channel positions                        : Front: L C R, Side: L R, LFE
Sampling rate                            : 48.0 KHz
Bit depth                                : 24 bits
Compression mode                         : Lossy
Stream size                              : 1.16 GiB (14%)
Title                                    : EAGLE
Language                                 : English
Default                                  : Yes
Forced                                   : No
iMDB:
Kod:
http://www.imdb.com/title/tt1742334/






Single Extraction | No Password | Interchangeable Links: | Working 100% |

Kod:
http://rapidgator.net/file/1fea7df9f25b19919c5ad820882645fb/SaB0taGE1080p.EAGLE.part1.rar.html
http://rapidgator.net/file/b03b666b610716660be18cfda43778ce/SaB0taGE1080p.EAGLE.part2.rar.html
http://rapidgator.net/file/4ec17a8412371731a02c3878ae49382a/SaB0taGE1080p.EAGLE.part3.rar.html
http://rapidgator.net/file/7e1972e8dd340459bd56d4ba1c8ed9b2/SaB0taGE1080p.EAGLE.part4.rar.html
http://rapidgator.net/file/e3990145649983242e67aecf954e4643/SaB0taGE1080p.EAGLE.part5.rar.html
http://rapidgator.net/file/10be9b47b01cd1e16efde1c3c800345d/SaB0taGE1080p.EAGLE.part6.rar.html

http://uploaded.net/file/yq5xdt8i/SaB0taGE1080p.EAGLE.part1.rar
http://uploaded.net/file/ejnp7hko/SaB0taGE1080p.EAGLE.part2.rar
http://uploaded.net/file/3952y2kz/SaB0taGE1080p.EAGLE.part3.rar
http://uploaded.net/file/rs67wyym/SaB0taGE1080p.EAGLE.part4.rar
http://uploaded.net/file/k12khhj9/SaB0taGE1080p.EAGLE.part5.rar
http://uploaded.net/file/kh1grxz3/SaB0taGE1080p.EAGLE.part6.rar

http://xerver.co/tiedqkxek164/SaB0taGE1080p.EAGLE.part1.rar
http://xerver.co/cqmkea3rhqv9/SaB0taGE1080p.EAGLE.part2.rar
http://xerver.co/rkxv0pt84mif/SaB0taGE1080p.EAGLE.part3.rar
http://xerver.co/bct90fsyug8b/SaB0taGE1080p.EAGLE.part4.rar
http://xerver.co/rnl26zojl4ql/SaB0taGE1080p.EAGLE.part5.rar
http://xerver.co/8217zih7962y/SaB0taGE1080p.EAGLE.part6.rar

https://www.oboom.com/YHB0Y3GP/SaB0taGE1080p.EAGLE.part1.rar
https://www.oboom.com/8LJ6C285/SaB0taGE1080p.EAGLE.part2.rar
https://www.oboom.com/M5BL9HC0/SaB0taGE1080p.EAGLE.part3.rar
https://www.oboom.com/YMF76HQR/SaB0taGE1080p.EAGLE.part4.rar
https://www.oboom.com/8F1A8HR2/SaB0taGE1080p.EAGLE.part5.rar
https://www.oboom.com/7LKFGQFA/SaB0taGE1080p.EAGLE.part6.rar
 
Top