Šta je novo?
Član
Učlanjen(a)
02.03.2013
Poruka
3.108
Rush 2013 NEWCAM V2 PP4003


cp4k9.jpg



File: Rush 2013 NEWCAM V2 PP4003.mp4
Size: 1416970577 bytes (1.32 GiB), duration: 01:52:34, avg.bitrate: 1678 kb/s
Audio: aac, 44100 Hz, stereo (eng)
Video: h264, yuv420p, 720x308, 29.97 fps(r) (eng)


Rush_2013_NEWCAM_V2_PP4003_s.jpg



If U Like My Post Willing To Buy Premium For High Speed Resumable downloads Pls BuY Premium From This Links


Kod:
http://rapidgator.net/file/cf379fa0d208c493a37d42f6763a1986/Rush_2013_NEWCAM_V2_PP4003.mp4.part2.rar.html
http://rapidgator.net/file/76edc6a12c05b405297a023e07d4ee9c/Rush_2013_NEWCAM_V2_PP4003.mp4.part1.rar.html


Kod:
http://www.secureupload.eu/pj08zopvfap4/Rush_2013_NEWCAM_V2_PP4003.mp4.part1.rar
http://www.secureupload.eu/nyfpk0hss2wa/Rush_2013_NEWCAM_V2_PP4003.mp4.part2.rar


 
Poslednja izmena od urednika:
Član
Učlanjen(a)
21.01.2013
Poruka
1.111
80240778247541231759.jpg


Rush (2013) NEWSOURCE CAM X264 MP3 AVi MURDER
I.M.D.B INFO
Kod:
http://www.imdb.com/title/tt1979320/
Size: 1.21 GB
Genre:Action / Biography / Drama / Sport
Language: English / German / Italian / French
File: Rush 2013 NEWSOURCE CAM X264 MP3 AVi MURDER.avi
Size: 1302216676 bytes (1.21 GiB), duration: 01:52:38, avg.bitrate: 1542 kb/s
Audio: mp3, 44100 Hz, stereo, 128 kb/s
Video: h264, yuv420p, 720x400, 25.00 fps(r)

Storyline:
Set against the sexy, glamorous golden age of Formula 1 racing in the 1970s, the film is based on the true story of a great sporting rivalry between handsome English playboy James Hunt (Hemsworth), and his methodical, brilliant opponent, Austrian driver Niki Lauda (Bruhl). The story follows their distinctly different personal styles on and off the track, their loves and the astonishing 1976 season in which both drivers were willing to risk everything to become world champion in a sport with no margin for error: if you make a mistake, you die.



Screenshots:
70089828001319075196.jpg



navz.gif

(All below links are interchangable. No password)

Download From Rapidgator
Kod:
http://rapidgator.net/file/05987f4f18ae36ef29883a9df9c059e0/Rush.2013.NEWSOURCE.CAM.X264.MP3.AVi.MURDER.part1.rar.html
http://rapidgator.net/file/a8f34b498a058534e6ee1036ced17f7a/Rush.2013.NEWSOURCE.CAM.X264.MP3.AVi.MURDER.part2.rar.html

Download From Uploaded
Kod:
http://uploaded.net/file/5oyqpar0/Rush.2013.NEWSOURCE.CAM.X264.MP3.AVi.MURDER.part1.rar
http://uploaded.net/file/mwezd11b/Rush.2013.NEWSOURCE.CAM.X264.MP3.AVi.MURDER.part2.rar

Download From Turbobit
Kod:
http://turbobit.net/nrbgnmhsrfxg/Rush.2013.NEWSOURCE.CAM.X264.MP3.AVi.MURDER.part1.rar.html
http://turbobit.net/o2uj1km2qrbm/Rush.2013.NEWSOURCE.CAM.X264.MP3.AVi.MURDER.part2.rar.html

Download From Secureupload
Kod:
http://www.secureupload.eu/0e94v4xqt59e/Rush.2013.NEWSOURCE.CAM.X264.MP3.AVi.MURDER.part1.rar
http://www.secureupload.eu/dqluuts43j0t/Rush.2013.NEWSOURCE.CAM.X264.MP3.AVi.MURDER.part2.rar

[DizzCloud]
 
Član
Učlanjen(a)
09.05.2011
Poruka
7.549
===============================
Rush (2013) CAM XviD READNFO-INFERNO
File Size: 1.29 GiB

===============================


rush.jpg





Title: Rush
Year: 2013
Genre: Action, Biography, Drama, Sport
Rating: 8.4 (2,571 votes)
Runtime: 2 h 3 min
Director: Ron Howard
Cast: Daniel Brühl, Chris Hemsworth, Olivia Wilde, Natalie Dormer
Plot:
Kod:
A re-creation of the merciless 1970s rivalry between Formula One rivals James Hunt and Niki Lauda.







Format : AVI
Format/Info : Audio Video Interleave
File size : 1.29 GiB
Duration : 1h 52mn
Overall bit rate : 1 636 Kbps
Writing library : VirtualDub build 35390/release


Video
ID : 0
Format : MPEG-4 Visual
Format profile : Advanced [email protected]
Format settings, BVOP : Yes
Format settings, QPel : No
Format settings, GMC : No warppoints
Format settings, Matrix : Default (H.263)
Muxing mode : Packed bitstream
Codec ID : XVID
Codec ID/Hint : XviD
Duration : 1h 52mn
Bit rate : 1 499 Kbps
Width : 720 pixels
Height : 384 pixels
Display aspect ratio : 1.875
Frame rate : 25.000 fps
Color space : YUV
Chroma subsampling : 4:2:0
Bit depth : 8 bits
Scan type : Progressive
Bits/(Pixel*Frame) : 0.217
Stream size : 1.18 GiB (92%)
Writing library : XviD 1.2.1 (UTC 2008-12-04)


Audio
ID : 1
Format : MPEG Audio
Format version : Version 1
Format profile : Layer 3
Mode : Joint stereo
Mode extension : MS Stereo
Codec ID : 55
Codec ID/Hint : MP3
Duration : 1h 52mn
Bit rate mode : Constant
Bit rate : 128 Kbps
Channel(s) : 2 channels
Sampling rate : 48.0 KHz
Stream size : 103 MiB (8%)
Alignment : Split accross interleaves
Interleave, duration : 40 ms (1.00 video frame)
Interleave, preload duration : 500 ms


Imdb Url:
Kod:
http://www.imdb.com/title/tt1979320/
Movie Trailer:
Kod:
http://www.youtube.com/watch?v=QKAr42gxjhM




ru1.png



ru2.png



ru3.png





DOWNLOAD:
Kod:
http://uploaded.net/file/hbm3apa0/RuSh.CaM.iNFERNO.part1.rar
http://uploaded.net/file/v3ucuxom/RuSh.CaM.iNFERNO.part2.rar
http://uploaded.net/file/62k12ydh/RuSh.CaM.iNFERNO.part3.rar


http://rapidgator.net/file/a629d2c98bbe2a94c897de1afe057676/RuSh.CaM.iNFERNO.part1.rar.html
http://rapidgator.net/file/037218b5073f25f18e17f31d04dcc33f/RuSh.CaM.iNFERNO.part2.rar.html
http://rapidgator.net/file/4efceefba0af5f14ce7902a91156f581/RuSh.CaM.iNFERNO.part3.rar.html


http://netload.in/dateizvnWnNts5y/RuSh.CaM.iNFERNO.part1.rar.htm
http://netload.in/dateieSkXg8Zv3Z/RuSh.CaM.iNFERNO.part2.rar.htm
http://netload.in/dateiK85N47KhZu/RuSh.CaM.iNFERNO.part3.rar.htm


http://fileparadox.in/8r6qbwvtinv1/RuSh.CaM.iNFERNO.part1.rar
http://fileparadox.in/900lpqsj0fgo/RuSh.CaM.iNFERNO.part2.rar
http://fileparadox.in/wojr76z7awpw/RuSh.CaM.iNFERNO.part3.rar
 
Poslednja izmena od urednika:
Član
Učlanjen(a)
02.03.2013
Poruka
3.108
Rush 2013 CAM XviD READNFO-INFERNO


cp4k9.jpg



File: Rush 2013 CAM XviD READNFO-INFERNO.avi
Size: 1382051170 bytes (1.29 GiB), duration: 01:52:38, avg.bitrate: 1636 kb/s
Audio: mp3, 48000 Hz, stereo, 128 kb/s
Video: mpeg4, yuv420p, 720x384, 25.00 fps(r)


Rush_2013_CAM_Xvi_D_READNFO_INFERNO_s.jpg



If U Like My Post Willing To Buy Premium For High Speed Resumable downloads Pls BuY Premium From This Links



Kod:
http://rapidgator.net/file/1e80dfb8a56f6c30099d534aa1e82105/Rush_2013_CAM_XviD_READNFO-INFERNO.part2.rar.html
http://rapidgator.net/file/17affda78956a1168bce8bdb9650b80e/Rush_2013_CAM_XviD_READNFO-INFERNO.part1.rar.html


Kod:
http://k2s.cc/file/525bffe490224/Rush_2013_CAM_XviD_READNFO-INFERNO.part1.rar
http://k2s.cc/file/525c001f2d875/Rush_2013_CAM_XviD_READNFO-INFERNO.part2.rar


 
Poslednja izmena od urednika:
Top