Šta je novo?
SerbianForum

This is a sample guest message. Register a free account today to become a member! Once signed in, you'll be able to participate on this site by adding your own topics and posts, as well as connect with other members through your own private inbox!

Rode u magli (2009)

  • Začetnik teme Torrent Maniak
  • Datum pokretanja
Torrent Maniak

Torrent Maniak

Moderator
#1
Rode u magli (2009)




screen.png





Rode_u_magli_2009_s.png




info.png





Žanr: Akcija, Drama, Komedija
Zemlja: Srbija
Režiser: Goran Gajić
Scenarista: Miloš Radović
Glavne uloge: Dragan Bjelogrlić, Nikola Đuričko, Srđan Todorović

Opis filma: Nekoliko dana pre Nove godine u Barandu dolazi Špricer, Ekserov i Duletov drug iz mladosti, koji je u problemu i traži njihovu pomoć. Poseta koja će uznemiriti mirno banatsko selo i miran život kojim sada žive poznati likovi. Švaba, Ekser, Dule i drugi, suočiće se sa sa velikim iskušenjem koje stiže iz sveta kome su i sami nekada pripadali. Iako promenjeni, videćemo kako će uspeti da se izbore za život kakav su želeli…




cz8ovxm.png




screen.png






Rode_u_magli_2009_.avi.jpg




Download.png





You need to like this in order to view this content.
 
Poslednja izmena:
Wolf 13

Wolf 13

Moderator
#4
Rode u magli (2009) DVDrip x264 1.dio by Wolf
(MKV)

oVMMx4d.jpg


Kod:
http://www.imdb.com/title/tt1347002/
General
Unique ID : 154288194164745864510016330507310532450 (0x7412D348382EF44D9695672C05770762)
Complete name : Rode.u.magli.2009.DVDrip.x264.1.dio.by.Wolf.mkv
Format : Matroska
Format version : Version 2
File size : 1.10 GiB
Duration : 1 h 12 min
Overall bit rate : 2 161 kb/s
Movie name : RODE U MAGLI 1
Encoded date : UTC 2017-05-02T17:42:16Z
Writing application : HandBrake 0.10.5 2016021100
Writing library : Lavf55.12.0

Video
ID : 1
Format : AVC
Format/Info : Advanced Video Codec
Format profile : High@L4.1
Format settings, CABAC : Yes
Format settings, ReFrames : 9 frames
Codec ID : V_MPEG4/ISO/AVC
Duration : 1 h 12 min
Bit rate : 2 000 kb/s
Width : 848 pixels
Height : 480 pixels
Display aspect ratio : 16:9
Original display aspect rat : 16:9
Frame rate mode : Constant
Frame rate : 25.000 FPS
Color space : YUV
Chroma subsampling : 4:2:0
Bit depth : 8 bits
Scan type : Progressive
Bits/(Pixel*Frame) : 0.197
Stream size : 1 003 MiB (89%)
Writing library : x264 core 142 r2479 dd79a61
Encoding settings : cabac=1 / ref=9 / deblock=1:-1:-1 / analyse=0x3:0x113 / me=umh / subme=7 / psy=1 / psy_rd=1.00:0.00 / mixed_ref=1 / me_range=32 / chroma_me=1 / trellis=2 / 8x8dct=1 / cqm=0 / deadzone=21,11 / fast_pskip=1 / chroma_qp_offset=-2 / threads=3 / lookahead_threads=1 / sliced_threads=0 / nr=0 / decimate=1 / interlaced=0 / bluray_compat=0 / constrained_intra=0 / bframes=3 / b_pyramid=2 / b_adapt=2 / b_bias=0 / direct=3 / weightb=1 / open_gop=0 / weightp=2 / keyint=250 / keyint_min=25 / scenecut=40 / intra_refresh=0 / rc_lookahead=40 / rc=abr / mbtree=1 / bitrate=2000 / ratetol=1.0 / qcomp=0.60 / qpmin=0 / qpmax=69 / qpstep=4 / vbv_maxrate=50000 / vbv_bufsize=50000 / nal_hrd=none / filler=0 / ip_ratio=1.40 / aq=1:1.00
Default : Yes
Forced : No
Color range : Limited
Color primaries : BT.601 PAL
Transfer characteristics : BT.709
Matrix coefficients : BT.601

Audio
ID : 2
Format : AC-3
Format/Info : Audio Coding 3
Format settings, Endianness : Big
Codec ID : A_AC3
Duration : 1 h 12 min
Bit rate mode : Constant
Bit rate : 192 kb/s
Channel(s) : 2 channels
Channel positions : Front: L R
Sampling rate : 48.0 kHz
Frame rate : 31.250 FPS (1536 spf)
Bit depth : 16 bits
Compression mode : Lossy
Delay relative to video : -5 ms
Stream size : 99.9 MiB (9%)
Title : RODE U MAGLI
Language : Serbian
Service kind : Complete Main
Default : Yes
Forced : No
k2aTdzy.png

Kod:
https://www83.zippyshare.com/v/kxKDQtD6/file.html
https://www83.zippyshare.com/v/UWxs0GiT/file.html
https://www83.zippyshare.com/v/6R4ITMYF/file.html
zbzk8Ad.jpg
 
Poslednja izmena:
Wolf 13

Wolf 13

Moderator
#5
Rode u magli (2009) DVDrip x264 2.dio by Wolf
(MKV)

oVMMx4d.jpg


Kod:
http://www.imdb.com/title/tt1347002/
General
Unique ID : 176924990052078888761343873549563362704 (0x851A837CF070F1655EC6115662A47D90)
Complete name : Rode.u.magli.2009.DVDrip.x264.2.dio.by.Wolf.mkv
Format : Matroska
Format version : Version 2
File size : 1.08 GiB
Duration : 1 h 11 min
Overall bit rate : 2 163 kb/s
Movie name : RODE U MAGLI 2
Encoded date : UTC 2017-05-01T22:51:18Z
Writing application : HandBrake 0.10.5 2016021100
Writing library : Lavf55.12.0

Video
ID : 1
Format : AVC
Format/Info : Advanced Video Codec
Format profile : High@L4.1
Format settings, CABAC : Yes
Format settings, ReFrames : 9 frames
Codec ID : V_MPEG4/ISO/AVC
Duration : 1 h 11 min
Bit rate : 2 000 kb/s
Width : 848 pixels
Height : 480 pixels
Display aspect ratio : 16:9
Original display aspect rat : 16:9
Frame rate mode : Constant
Frame rate : 25.000 FPS
Color space : YUV
Chroma subsampling : 4:2:0
Bit depth : 8 bits
Scan type : Progressive
Bits/(Pixel*Frame) : 0.197
Stream size : 988 MiB (89%)
Writing library : x264 core 142 r2479 dd79a61
Encoding settings : cabac=1 / ref=9 / deblock=1:-1:-1 / analyse=0x3:0x113 / me=umh / subme=7 / psy=1 / psy_rd=1.00:0.00 / mixed_ref=1 / me_range=32 / chroma_me=1 / trellis=2 / 8x8dct=1 / cqm=0 / deadzone=21,11 / fast_pskip=1 / chroma_qp_offset=-2 / threads=3 / lookahead_threads=1 / sliced_threads=0 / nr=0 / decimate=1 / interlaced=0 / bluray_compat=0 / constrained_intra=0 / bframes=3 / b_pyramid=2 / b_adapt=2 / b_bias=0 / direct=3 / weightb=1 / open_gop=0 / weightp=2 / keyint=250 / keyint_min=25 / scenecut=40 / intra_refresh=0 / rc_lookahead=40 / rc=abr / mbtree=1 / bitrate=2000 / ratetol=1.0 / qcomp=0.60 / qpmin=0 / qpmax=69 / qpstep=4 / vbv_maxrate=50000 / vbv_bufsize=50000 / nal_hrd=none / filler=0 / ip_ratio=1.40 / aq=1:1.00
Default : Yes
Forced : No
Color range : Limited
Color primaries : BT.601 PAL
Transfer characteristics : BT.709
Matrix coefficients : BT.601

Audio
ID : 2
Format : AC-3
Format/Info : Audio Coding 3
Format settings, Endianness : Big
Codec ID : A_AC3
Duration : 1 h 11 min
Bit rate mode : Constant
Bit rate : 192 kb/s
Channel(s) : 2 channels
Channel positions : Front: L R
Sampling rate : 48.0 kHz
Frame rate : 31.250 FPS (1536 spf)
Bit depth : 16 bits
Compression mode : Lossy
Delay relative to video : -5 ms
Stream size : 98.4 MiB (9%)
Title : Stereo
Language : Serbian
Service kind : Complete Main
Default : Yes
Forced : No
k2aTdzy.png

You need to like this in order to view this content.
1mYokOS.png

U4ny89R.jpg
 
Poslednja izmena:

Top