Šta je novo?
Član
Učlanjen(a)
09.05.2011
Poruka
7.549
************************************************************
Reclaim (2014) HDRip XviD AC3 EVO
File Size: 1.39 GiB

************************************************************

reclaim.jpg


INFO:
Kod:
General
Complete name                            : G:\R.2014-EVO.avi
Format                                   : AVI
Format/Info                              : Audio Video Interleave
File size                                : 1.39 GiB
Duration                                 : 1h 36mn
Overall bit rate                         : 2 078 Kbps
Writing library                          : VirtualDub build 32593/release

Video
ID                                       : 0
Format                                   : MPEG-4 Visual
Format profile                           : Advanced [email protected]
Format settings, BVOP                    : 2
Format settings, QPel                    : No
Format settings, GMC                     : No warppoints
Format settings, Matrix                  : Default (H.263)
Muxing mode                              : Packed bitstream
Codec ID                                 : XVID
Codec ID/Hint                            : XviD
Duration                                 : 1h 36mn
Bit rate                                 : 1 685 Kbps
Width                                    : 720 pixels
Height                                   : 384 pixels
Display aspect ratio                     : 1.85:1
Frame rate                               : 23.976 fps
Color space                              : YUV
Chroma subsampling                       : 4:2:0
Bit depth                                : 8 bits
Scan type                                : Progressive
Compression mode                         : Lossy
Bits/(Pixel*Frame)                       : 0.254
Stream size                              : 1.13 GiB (81%)
Writing library                          : XviD 64

Audio
ID                                       : 1
Format                                   : AC-3
Format/Info                              : Audio Coding 3
Mode extension                           : CM (complete main)
Format settings, Endianness              : Big
Codec ID                                 : 2000
Duration                                 : 1h 36mn
Bit rate mode                            : Constant
Bit rate                                 : 384 Kbps
Channel(s)                               : 2 channels
Channel positions                        : Front: L R
Sampling rate                            : 48.0 KHz
Bit depth                                : 16 bits
Compression mode                         : Lossy
Stream size                              : 264 MiB (18%)
Alignment                                : Aligned on interleaves
Interleave, duration                     : 42 ms (1.00 video frame)
Interleave, preload duration             : 512 ms

iMDB:
Kod:
http://www.imdb.com/title/tt3202890/

vlcsnap-2014-09-19-14h10.png


vlcsnap-2014-09-19-14h10.png


vlcsnap-2014-09-19-14h10.png


Single Extraction | No Password | Interchangeable Links: | Working 100% |

Kod:
http://rapidgator.net/file/31fb3cd32c2c7268160a44eb2b03dd8a/R2014HDRip.EVO.part1.rar.html
http://rapidgator.net/file/1507905ef932d9608b7ce65a21b0d890/R2014HDRip.EVO.part2.rar.html
http://rapidgator.net/file/e8036ab1d3f731b232e523ee0bc60b44/R2014HDRip.EVO.part3.rar.html

http://uploaded.net/file/6lwu7zsu/R2014HDRip.EVO.part1.rar
http://uploaded.net/file/4r5750ll/R2014HDRip.EVO.part2.rar
http://uploaded.net/file/9wpeotwn/R2014HDRip.EVO.part3.rar

http://xerver.co/crmvoccm4mdb/R2014HDRip.EVO.part1.rar
http://xerver.co/v9ird5mzbar2/R2014HDRip.EVO.part2.rar
http://xerver.co/klm6t77ccv4m/R2014HDRip.EVO.part3.rar

https://www.oboom.com/R71YZCS2/R2014HDRip.EVO.part1.rar
https://www.oboom.com/C5KBECIC/R2014HDRip.EVO.part2.rar
https://www.oboom.com/ANISYXTO/R2014HDRip.EVO.part3.rar
 
Član
Učlanjen(a)
09.05.2011
Poruka
7.549
************************************************************
Reclaim (2014) 720p HDRip x264 AC3-MAJESTiC
File Size: 2.38 GiB

************************************************************

re.jpg


INFO:
Kod:
General Information

Sample Included......: Yes
DXVA Compliant.......: Yes
Source...............: Reclaim.2014.720p.HDRip.x264.AC3.5.1-RARBG
Container............: MKV
Length...............: 1h 36mn
Size.................: 2.38 GiB
Total Bitrate........: 3 544 Kbps
IMDb Information.....: 

Video Info

Codec................: X264
Type.................: 720p
Format Profile Level.: [email protected]
Resolution...........: 1280x688
Aspect Ratio.........: 1.86:1
Bitrate..............: 3 200 Kbps
Framerate............: 23.976 fps

Audio Info

Codec................: AC3
Bitrate..............: 384 Kbps
kHz/bit..............: 48.0 KHz / 16 bits
Channels.............: 6
Language.............: English
Subtitles............: English

iMDB:
Kod:
http://www.imdb.com/title/tt3202890/

vlcsnap-2014-09-20-00h57.png


vlcsnap-2014-09-20-00h57.png


vlcsnap-2014-09-20-00h57.png


Single Extraction | No Password | Interchangeable Links: | Working 100% |

Kod:
http://rapidgator.net/file/ca3e2fa397bef15f8bbd8e49dfc5050c/R3cL720p.MAJESTiC.part1.rar.html
http://rapidgator.net/file/4f775bf6eacffcd7040b1831aca8f362/R3cL720p.MAJESTiC.part2.rar.html
http://rapidgator.net/file/e6a03cfac91495ca4f1ffee5b5d3b8c6/R3cL720p.MAJESTiC.part3.rar.html
http://rapidgator.net/file/587162d42cf538dc507019b3f590240e/R3cL720p.MAJESTiC.part4.rar.html

http://uploaded.net/file/ynmr1c6o/R3cL720p.MAJESTiC.part1.rar
http://uploaded.net/file/8yeo076d/R3cL720p.MAJESTiC.part2.rar
http://uploaded.net/file/syo1woa5/R3cL720p.MAJESTiC.part3.rar
http://uploaded.net/file/odcnos32/R3cL720p.MAJESTiC.part4.rar

http://xerver.co/db2jibx5vqkp/R3cL720p.MAJESTiC.part1.rar
http://xerver.co/h49j6paap0os/R3cL720p.MAJESTiC.part2.rar
http://xerver.co/21w7ordbn60a/R3cL720p.MAJESTiC.part3.rar
http://xerver.co/mz313ufx6fb3/R3cL720p.MAJESTiC.part4.rar

https://www.oboom.com/R6SD9J02/R3cL720p.MAJESTiC.part1.rar
https://www.oboom.com/S0J1B93S/R3cL720p.MAJESTiC.part2.rar
https://www.oboom.com/7JXGH5BU/R3cL720p.MAJESTiC.part3.rar
https://www.oboom.com/O85IGT6K/R3cL720p.MAJESTiC.part4.rar
 
Top