Šta je novo?

Reasonable Doubt (2014)

Član
Učlanjen(a)
09.05.2011
Poruka
7.549
=
Reasonable Doubt (2014) HDRip XviD NODOUBT
File Size: 1.32 GiB

=

FoMajBl.jpg


Title: Reasonable Doubt
Year: 2014
Genre: Crime, Thriller
Rating: N/A (N/A votes)
Runtime: 91 min
Director: Peter P. Croudins
Cast: Samuel L. Jackson, Dominic Cooper, Erin Karpluk, Gloria Reuben
Plot:
Kod:
A District Attorney has his life turned upside down when he's involved in a hit and run and another man is arrested for his crime and charged with murder.


General
Complete name : Reasonable.avi
Format : AVI
Format/Info : Audio Video Interleave
File size : 1.32 GiB
Duration : 1h 31mn
Overall bit rate : 2 067 Kbps
Writing application : VirtualDubMod 1.5.10.2 (build 2540/release)
Writing library : VirtualDubMod build 2540/release

Video
ID : 0
Format : MPEG-4 Visual
Format profile : Advanced [email protected]
Format settings, BVOP : 2
Format settings, QPel : No
Format settings, GMC : No warppoints
Format settings, Matrix : Default (MPEG)
Muxing mode : Packed bitstream
Codec ID : XVID
Codec ID/Hint : XviD
Duration : 1h 31mn
Bit rate : 1 674 Kbps
Width : 720 pixels
Height : 304 pixels
Display aspect ratio : 2.35:1
Frame rate : 23.976 fps
Color space : YUV
Chroma subsampling : 4:2:0
Bit depth : 8 bits
Scan type : Progressive
Compression mode : Lossy
Bits/(Pixel*Frame) : 0.319
Stream size : 1.07 GiB (81%)
Writing library : XviD 64

Audio
ID : 1
Format : AC-3
Format/Info : Audio Coding 3
Mode extension : CM (complete main)
Format settings, Endianness : Big
Codec ID : 2000
Duration : 1h 31mn
Bit rate mode : Constant
Bit rate : 384 Kbps
Channel count : 6 channels
Channel positions : Front: L C R, Side: L R, LFE
Sampling rate : 48.0 KHz
Bit depth : 16 bits
Compression mode : Lossy
Stream size : 251 MiB (19%)
Alignment : Split accross interleaves
Interleave, duration : 42 ms (1.00 video frame)
Interleave, preload duration : 500 ms

Imdb Url:
Kod:
[url]http://www.imdb.com/title/tt2304953/[/url]
Movie Trailer:
Kod:
[media=youtube]bGJHY5DQeQE[/media]


reason.png



DOWNLOAD:
Kod:
[url]http://uploaded.net/file/3gv7398n/Reasonable.part1.rar[/url]
[url]http://uploaded.net/file/gpyf236y/Reasonable.part2.rar[/url]
[url]http://uploaded.net/file/vo4z09yp/Reasonable.part3.rar[/url]
[url]http://uploaded.net/file/r4sibi7u/Reasonable.part4.rar[/url]

[url]http://rapidgator.net/file/dcdd42ce0bdba39244d9671264e240d6/Reasonable.part1.rar.html[/url]
[url]http://rapidgator.net/file/e3a5943b30c36bf42c5af8219c0e31af/Reasonable.part2.rar.html[/url]
[url]http://rapidgator.net/file/3b62234aba0267335b2cd75b7737b1f8/Reasonable.part3.rar.html[/url]
[url]http://rapidgator.net/file/f736b63f8ce85b9800fd0795a5a94380/Reasonable.part4.rar.html[/url]

[url]http://ryushare.com/uoh9jsgv99zh/Reasonable.part1.rar[/url]
[url]http://ryushare.com/n44ajhb5yxup/Reasonable.part2.rar[/url]
[url]http://ryushare.com/2iuwzg32an3d/Reasonable.part3.rar[/url]
[url]http://ryushare.com/phq5q3ze7zib/Reasonable.part4.rar[/url]

[url]http://lumfile.com/cnpnmboqtu74/Reasonable.part1.rar.html[/url]
[url]http://lumfile.com/40xm436kd6vb/Reasonable.part2.rar.html[/url]
[url]http://lumfile.com/s5b5i27urrap/Reasonable.part3.rar.html[/url]
[url]http://lumfile.com/3pvmhw6lao6e/Reasonable.part4.rar.html[/url]
 
Član
Učlanjen(a)
09.05.2011
Poruka
7.549
===============================
Reasonable Doubt (2014) WEBRip 720p X264 AC3 H3LL2P4Y
File Size: 1,26 GiB

===============================

reason.jpg



Complete name : Reasonable.Doubt.2014.Webrip.720p.X264.AC3.H3LL2P4Y.mkv
Format : Matroska
Format version : Version 4 / Version 2
File size : 1.26 GiB
Duration : 1h 31mn
Overall bit rate mode : Variable
Overall bit rate : 1 979 Kbps
Encoded date : UTC 2014-01-18 03:34:07
Writing application : mkvmerge v6.5.0 ('Isn't she lovely') built on Oct 20 2013 12:50:05
Writing library : libebml v1.3.0 + libmatroska v1.4.1

Video
ID : 1
Format : AVC
Format/Info : Advanced Video Codec
Format profile : [email protected]
Format settings, CABAC : Yes
Format settings, ReFrames : 3 frames
Codec ID : V_MPEG4/ISO/AVC
Duration : 1h 31mn
Bit rate mode : Variable
Bit rate : 1 556 Kbps
Maximum bit rate : 40.0 Mbps
Width : 1 280 pixels
Height : 528 pixels
Display aspect ratio : 2.40:1
Frame rate mode : Constant
Frame rate : 23.976 fps
Color space : YUV
Chroma subsampling : 4:2:0
Bit depth : 8 bits
Scan type : Progressive
Bits/(Pixel*Frame) : 0.096
Stream size : 1 016 MiB (79%)
Writing library : x264 core 140 r2377 1ca7bb9
Default : Yes
Forced : No

Audio
ID : 2
Format : AC-3
Format/Info : Audio Coding 3
Mode extension : CM (complete main)
Format settings, Endianness : Big
Codec ID : A_AC3
Duration : 1h 31mn
Bit rate mode : Constant
Bit rate : 384 Kbps
Channel(s) : 6 channels
Channel positions : Front: L C R, Side: L R, LFE
Sampling rate : 48.0 KHz
Bit depth : 16 bits
Compression mode : Lossy
Stream size : 251 MiB (19%)
Default : Yes
Forced : No


Kod:
[url]http://www.imdb.com/title/tt2304953/[/url]


r1.png


r2.png


r3.png



SINGLE EXTRACTION | NO PASSWORD | INTERCHANGEABLE LINK:
Kod:
[url]http://uploaded.net/file/vavzf0ef/tt2304953.WEBRip.720p.H3LL2P4Y.part1.rar[/url]
[url]http://uploaded.net/file/ldt5tnfj/tt2304953.WEBRip.720p.H3LL2P4Y.part2.rar[/url]
[url]http://uploaded.net/file/lbpgj3n6/tt2304953.WEBRip.720p.H3LL2P4Y.part3.rar[/url]

[url]http://rapidgator.net/file/e2844a1c3dbc2f036249aaf4811fae89/tt2304953.WEBRip.720p.H3LL2P4Y.part1.rar.html[/url]
[url]http://rapidgator.net/file/52c75496c16b9bbd4570cc5ea306ae3f/tt2304953.WEBRip.720p.H3LL2P4Y.part2.rar.html[/url]
[url]http://rapidgator.net/file/31d297d99d10a8343e1f1f2335ef7689/tt2304953.WEBRip.720p.H3LL2P4Y.part3.rar.html[/url]

[url]http://ryushare.com/vkq30xc4modr/tt2304953.WEBRip.720p.H3LL2P4Y.part1.rar[/url]
[url]http://ryushare.com/gpzbkcxe4kfg/tt2304953.WEBRip.720p.H3LL2P4Y.part2.rar[/url]
[url]http://ryushare.com/dqj5ng1jv8hf/tt2304953.WEBRip.720p.H3LL2P4Y.part3.rar[/url]

[url]http://lumfile.com/skejfjhasi1l/tt2304953.WEBRip.720p.H3LL2P4Y.part1.rar.html[/url]
[url]http://lumfile.com/ak5fyvn6z2yt/tt2304953.WEBRip.720p.H3LL2P4Y.part2.rar.html[/url]
[url]http://lumfile.com/gkbluij6mnko/tt2304953.WEBRip.720p.H3LL2P4Y.part3.rar.html[/url]
 
Top