Šta je novo?

Real Gangsters (2014)

Član
Učlanjen(a)
09.05.2011
Poruka
7.549
************************************************************
Real Gangsters (2014) HDRip XviD AC3-RARB
File Size: 1.22 GiB

************************************************************

hz17gm1.jpg


Title: Real Gangsters
Year: 2013
Genre: Crime, Drama, Mystery
Rating: 3.5 (315 votes)
Runtime: 88 min
Director: Frank D'Angelo
Cast: Paul Amato, Steven Bauer, Jason Blicker, Frank Caruso
Plot:
Kod:
Real Gangsters tells the story of the Lo Giacamo family, one of the most successful crime syndicates in New York City. Run by cousins Vincent Lo Giacamo (Nick Mancuso) and Jack Lo Giacamo (...

INFO:

General
Complete name : Real.Gangsters.2014.HDRip.XviD.AC3-RARB.avi
Format : AVI
Format/Info : Audio Video Interleave
File size : 1.22 GiB
Duration : 1h 27mn
Overall bit rate : 1 992 Kbps
Movie name : Downloaded from RARBG.COM
Writing library : VirtualDub build 35491/release
Comment : Downloaded from RARBG.COM

Video
ID : 0
Format : MPEG-4 Visual
Format profile : [email protected]
Format settings, BVOP : No
Format settings, QPel : No
Format settings, GMC : No warppoints
Format settings, Matrix : Default (H.263)
Codec ID : XVID
Codec ID/Hint : XviD
Duration : 1h 27mn
Bit rate : 1 599 Kbps
Width : 720 pixels
Height : 400 pixels
Display aspect ratio : 16:9
Frame rate : 23.976 fps
Color space : YUV
Chroma subsampling : 4:2:0
Bit depth : 8 bits
Scan type : Progressive
Compression mode : Lossy
Bits/(Pixel*Frame) : 0.232
Stream size : 1 005 MiB (80%)
Writing library : Lavc55.54.100

Audio
ID : 1
Format : AC-3
Format/Info : Audio Coding 3
Mode extension : CM (complete main)
Format settings, Endianness : Big
Codec ID : 2000
Duration : 1h 27mn
Bit rate mode : Constant
Bit rate : 384 Kbps
Channel(s) : 6 channels
Channel positions : Front: L C R, Side: L R, LFE
Sampling rate : 48.0 KHz
Bit depth : 16 bits
Compression mode : Lossy
Stream size : 241 MiB (19%)
Alignment : Aligned on interleaves
Interleave, duration : 42 ms (1.00 video frame)
Interleave, preload duration : 512 ms

iMDB:
Kod:
http://www.imdb.com/title/tt2865074/
Movie Trailer:
Kod:
http://www.youtube.com/watch?v=o26nGmqlwzg

real.jpg


Single Extraction | No Password | Interchangeable Links: | Working 100% |

Kod:
http://rapidgator.net/file/686f94581c03ec0ebfd8bc4e3864bbe6/Real.Gangsters.2014.HDRip.part1.rar.html
http://rapidgator.net/file/40d54e9cba50acfa998184f81d9bd278/Real.Gangsters.2014.HDRip.part2.rar.html
http://rapidgator.net/file/0d55f937cd9d377a7d8215c3af8d0c7c/Real.Gangsters.2014.HDRip.part3.rar.html

http://ul.to/dle4qd1a/Real.Gangsters.2014.HDRip.part1.rar
http://ul.to/p63zj11s/Real.Gangsters.2014.HDRip.part2.rar
http://ul.to/wfhl1447/Real.Gangsters.2014.HDRip.part3.rar

http://k2s.cc/file/88fd3e6aa8d3d/Real.Gangsters.2014.HDRip.part1.rar
http://k2s.cc/file/830058f8e147c/Real.Gangsters.2014.HDRip.part2.rar
http://k2s.cc/file/3e178b204ec6e/Real.Gangsters.2014.HDRip.part3.rar

https://www.oboom.com/SUQTAQER/Real.Gangsters.2014.HDRip.part1.rar
https://www.oboom.com/6HQK5J9Z/Real.Gangsters.2014.HDRip.part2.rar
https://www.oboom.com/ZU7HJJZW/Real.Gangsters.2014.HDRip.part3.rar


I HAVE BACKUP, DONT WORRY ABOUT DEAD LINKS, PLEASE SEND ME PM, AND I WILL REUP ANY LINK
 
Član
Učlanjen(a)
03.10.2012
Poruka
1.154
Real Gangsters 2014 720p WEBRip x264 AC3-FooKaS


real-gangstersuqXRl.jpg


Release Name: Real.Gangsters.2014.720p.WEBRip.x264.AC3-FooKaS
Size: 2.26 GB
Video: MKV | 1280×720 | 3311 Kbps
Audio: English | AC3 | 384 kbps
Runtime: 1h 28mn
Subtitles: N/A


Kod:
http://www.imdb.com/title/tt2865074/

Genre: Crime | Drama | Mystery | Thriller
IMDB Rating: 4.3/10 from 1,226 users
Directed by: Frank D’Angelo
Starring: Paul Amato, Steven Bauer, Jason Blicker

Real Gangsters tells the story of the Lo Giacamo family, one of the most successful crime syndicates in New York City.
Run by cousins Vincent Lo Giacamo (Nick Mancuso) and Jack Lo Giacamo (Frank D’Angelo) Real Gangsters shows how these two
men maintain control of their dangerous extended family and volatile business ventures by very different means. Vincent
is the politician, the man who always has a plan to help keep the peace, find common ground, bind blood and commerce and
grow the family into a billion dollar empire. Jack is the muscle, the hot head, ruthless and uncompromising he lives in
the moment and executes his actions based on how he feels. Unfortunately for these two men, these two philosophies don’t
always work together. Jack enforces his code of duty and honor with a brutal finality that sometimes destroys Vincent’s
creative scheming. Jack also finds himself unexpectedly protecting the underdogs in his neighborhood that sometimes
creates more trouble for him than it’s .



i6BBG4Wb.jpg




Kod:
http://freakshare.com/files/t25zi5iq/Real.Gangsters.720-FooKaS.part1.rar.html
http://freakshare.com/files/7c13q1fd/Real.Gangsters.720-FooKaS.part2.rar.html
http://freakshare.com/files/dtom2q0t/Real.Gangsters.720-FooKaS.part3.rar.html


http://bitshare.com/files/s3odm1sd/Real.Gangsters.720-FooKaS.part1.rar.html
http://bitshare.com/files/uixl1uh4/Real.Gangsters.720-FooKaS.part2.rar.html
http://bitshare.com/files/few7dg2e/Real.Gangsters.720-FooKaS.part3.rar.html


http://fileom.com/526kg4rywftu/Real.Gangsters.720-FooKaS.part1.rar.html
http://fileom.com/4l0elxjpji0n/Real.Gangsters.720-FooKaS.part2.rar.html
http://fileom.com/hy7suahuvo3y/Real.Gangsters.720-FooKaS.part3.rar.html
 
Top