Šta je novo?
Član
Učlanjen(a)
09.05.2011
Poruka
7.549
=
Re-Generator (2013) DVDRip XviD UnKnOwN
File Size: 903,68

=

regenerator.jpg



General
Complete name : Re-Generator.2013.DVDRip.XviD-UnKnOwN\rgUnKnOwN.avi
Format : AVI
Format/Info : Audio Video Interleave
File size : 904 MiB
Duration : 1h 31mn
Overall bit rate : 1 377 Kbps
Movie name : Regenarator
Director : UnKnOwN
Writing application : TMPGEnc Video Mastering Works 5 Version. 5.0.5.32
Writing library : TMPGEnc Video Mastering Works 5 Version. 5.0.5.32
Copyright : uNkNoWn
Comment : Hello Recoders :)

Video
ID : 0
Format : MPEG-4 Visual
Format profile : Advanced [email protected]
Format settings, BVOP : 2
Format settings, QPel : No
Format settings, GMC : No warppoints
Format settings, Matrix : Default (H.263)
Muxing mode : Packed bitstream
Codec ID : XVID
Codec ID/Hint : XviD
Duration : 1h 31mn
Bit rate : 1 233 Kbps
Width : 680 pixels
Height : 374 pixels
Display aspect ratio : 16:9
Frame rate : 29.970 fps
Color space : YUV
Chroma subsampling : 4:2:0
Bit depth : 8 bits
Scan type : Progressive
Compression mode : Lossy
Bits/(Pixel*Frame) : 0.162
Stream size : 810 MiB (90%)
Writing library : XviD 64

Audio
ID : 1
Format : MPEG Audio
Format version : Version 1
Format profile : Layer 3
Mode : Joint stereo
Codec ID : 55
Codec ID/Hint : MP3
Duration : 1h 31mn
Bit rate mode : Constant
Bit rate : 128 Kbps
Channel(s) : 2 channels
Sampling rate : 48.0 KHz
Compression mode : Lossy
Stream size : 84.0 MiB (9%)
Alignment : Aligned on interleaves
Interleave, duration : 34 ms (1.01 video frame)
Interleave, preload duration : 408 ms

vlcsnap-2013-05-10-19h06.png


vlcsnap-2013-05-10-19h06.png


vlcsnap-2013-05-10-19h07.png



DOWNLOAD:
Kod:
http://lumfile.com/qtiw8gfoyoz4/Re-Generator.2013.DVDRip.part1.rar.html
http://lumfile.com/d8rl5ngn1zp9/Re-Generator.2013.DVDRip.part2.rar.html
http://lumfile.com/30u2bswx5vyy/Re-Generator.2013.DVDRip.part3.rar.html

http://netload.in/dateihSfuOVP711/Re-Generator.2013.DVDRip.part1.rar.htm
http://netload.in/dateiEPXJNFKOcj/Re-Generator.2013.DVDRip.part2.rar.htm
http://netload.in/datei0Y0rwhQDa2/Re-Generator.2013.DVDRip.part3.rar.htm

http://rapidgator.net/file/93f49ce0495a9938eec6a1f3d18eb160/Re-Generator.2013.DVDRip.part1.rar.html
http://rapidgator.net/file/c7d7deb7be8e97772e75444a9cc1f686/Re-Generator.2013.DVDRip.part2.rar.html
http://rapidgator.net/file/50e8b18d1ead294d60ff3cb57b9bdcaa/Re-Generator.2013.DVDRip.part3.rar.html

http://uploaded.net/file/ek4n5ydp/Re-Generator.2013.DVDRip.part1.rar
http://uploaded.net/file/6mz77ghm/Re-Generator.2013.DVDRip.part2.rar
http://uploaded.net/file/uxpyg9h9/Re-Generator.2013.DVDRip.part3.rar
 
Poslednja izmena od urednika:
Top