Šta je novo?

Razorblade City (2010)

MODERATOR
Učlanjen(a)
10.10.2009
Poruka
13.307
Razorblade City (2010) DVDrip XviD

51tRhv2FXoL.jpg

RazorBlade City 2010 DVDRip Xvid LKRG

:info:
Razorblade City (2010) - IMDb

:download:

Kod:
http://hotfile.com/dl/87046575/1eb48f7/SceneDowns.CoM.rbLKRG.part1.rar.html
http://hotfile.com/dl/87046553/d1a1143/SceneDowns.CoM.rbLKRG.part2.rar.html
http://hotfile.com/dl/87046607/8adbdb5/SceneDowns.CoM.rbLKRG.part3.rar.html
http://hotfile.com/dl/87046518/6a5f879/SceneDowns.CoM.rbLKRG.part4.rar.html
http://hotfile.com/dl/87046600/f6e0ca6/SceneDowns.CoM.rbLKRG.part5.rar.html
http://hotfile.com/dl/87046613/ea595c6/SceneDowns.CoM.rbLKRG.part6.rar.html
http://hotfile.com/dl/87046570/4a72f1e/SceneDowns.CoM.rbLKRG.part7.rar.html
Kod:
http://www.fileserve.com/file/8Nv474V/SceneDowns.CoM.rbLKRG.part1.rar
http://www.fileserve.com/file/ZhcE25e/SceneDowns.CoM.rbLKRG.part2.rar
http://www.fileserve.com/file/9jvnKb4/SceneDowns.CoM.rbLKRG.part3.rar
http://www.fileserve.com/file/BmQJMr6/SceneDowns.CoM.rbLKRG.part4.rar
http://www.fileserve.com/file/HJSn8Jd/SceneDowns.CoM.rbLKRG.part5.rar
http://www.fileserve.com/file/rzGZzxw/SceneDowns.CoM.rbLKRG.part6.rar
http://www.fileserve.com/file/A2V5cPA/SceneDowns.CoM.rbLKRG.part7.rar
Kod:
http://depositfiles.com/files/bv8nt2qs4
http://depositfiles.com/files/gdu1zwewg
http://depositfiles.com/files/nvmh7gvmm
http://depositfiles.com/files/smr8njwyy
http://depositfiles.com/files/ihjugmhkl
http://depositfiles.com/files/c9sj6j7jn
http://depositfiles.com/files/0p4rvo1ub
Kod:
http://rapidshare.com/files/434955775/SceneDowns.CoM.rbLKRG.part1.rar
http://rapidshare.com/files/434955801/SceneDowns.CoM.rbLKRG.part2.rar
http://rapidshare.com/files/434955810/SceneDowns.CoM.rbLKRG.part3.rar
http://rapidshare.com/files/434955777/SceneDowns.CoM.rbLKRG.part4.rar
http://rapidshare.com/files/434955782/SceneDowns.CoM.rbLKRG.part5.rar
http://rapidshare.com/files/434955776/SceneDowns.CoM.rbLKRG.part6.rar
http://rapidshare.com/files/434955771/SceneDowns.CoM.rbLKRG.part7.rar
Kod:
http://www.megaupload.com/?d=S12UPOAE
http://www.megaupload.com/?d=KZQAMOS3
http://www.megaupload.com/?d=F0Y5MXDX
http://www.megaupload.com/?d=OKYZGVXW
http://www.megaupload.com/?d=B6LAO8C9
http://www.megaupload.com/?d=56MDOBKE
http://www.megaupload.com/?d=B0DCWZXB
 
Član
Učlanjen(a)
19.04.2009
Poruka
449
Razor Blade City (2010)

Razor Blade City (2010) DVDRip Xvid-LKRG

razori.jpg

Kod:
http://www.imdb.com/title/tt1754406/
Kod:
Video
ID                               : 0
Format                           : MPEG-4 Visual
Format profile                   : Advanced [email protected]
Format settings, BVOP            : Yes
Format settings, QPel            : No
Format settings, GMC             : No warppoints
Format settings, Matrix          : Default (H.263)
Muxing mode                      : Packed bitstream
Codec ID                         : XVID
Codec ID/Hint                    : XviD
Duration                         : 1h 32mn
Bit rate                         : 1 901 Kbps
Width                            : 700 pixels
Height                           : 386 pixels
Display aspect ratio             : 16:9
Frame rate                       : 29.970 fps
Color space                      : YUV
Chroma subsampling               : 4:2:0
Bit depth                        : 8 bits
Scan type                        : Progressive
Bits/(Pixel*Frame)               : 0.235
Stream size                      : 1.23 GiB (91%)
Writing library                  : XviD 1.2.1 (UTC 2008-12-04)

Audio
ID                               : 1
Format                           : AC-3
Format/Info                      : Audio Coding 3
Mode extension                   : CM (complete main)
Codec ID                         : 2000
Duration                         : 1h 32mn
Bit rate mode                    : Constant
Bit rate                         : 192 Kbps
Channel(s)                       : 2 channels
Channel positions                : Front: L R
Sampling rate                    : 48.0 KHz
Bit depth                        : 16 bits
Stream size                      : 127 MiB (9%)
Alignment                        : Aligned on interleaves
Interleave, duration             : 480 ms (14.38 video frames)
Interleave, preload duration     : 960 ms
razorscreen.jpg

download.gif

hosts.gif


:::.. LINKS | INTERCHANGEABLE ..:::

Hotfile
Kod:
http://hotfile.com/dl/87159077/9f2e5af/RazorBlade.City.2010.DVDRip.Xvid-LKRG.part1.rar
http://hotfile.com/dl/87163586/567fbcb/RazorBlade.City.2010.DVDRip.Xvid-LKRG.part2.rar
http://hotfile.com/dl/87248821/99a1bed/RazorBlade.City.2010.DVDRip.Xvid-LKRG.part3.rar
http://hotfile.com/dl/87253119/2d58826/RazorBlade.City.2010.DVDRip.Xvid-LKRG.part4.rar

Netload
Kod:
http://netload.in/dateiM2GQVVdxrt/RazorBlade.City.2010.DVDRip.Xvid-LKRG.part1.rar.htm
http://netload.in/datei3fdx76xScf/RazorBlade.City.2010.DVDRip.Xvid-LKRG.part2.rar.htm
http://netload.in/dateiRsJPeLkWGm/RazorBlade.City.2010.DVDRip.Xvid-LKRG.part3.rar.htm
http://netload.in/dateism93xRLjj7/RazorBlade.City.2010.DVDRip.Xvid-LKRG.part4.rar.htm

File Sonic
Kod:
http://www.filesonic.com/file/39284939/RazorBlade.City.2010.DVDRip.Xvid-LKRG.part1.rar
http://www.filesonic.com/file/39284951/RazorBlade.City.2010.DVDRip.Xvid-LKRG.part2.rar
http://www.filesonic.com/file/39285367/RazorBlade.City.2010.DVDRip.Xvid-LKRG.part3.rar
http://www.filesonic.com/file/39298329/RazorBlade.City.2010.DVDRip.Xvid-LKRG.part4.rar

FileServe
Kod:
http://www.fileserve.com/file/e45WSnS/RazorBlade.City.2010.DVDRip.Xvid-LKRG.part1.rar
http://www.fileserve.com/file/GdAPHUv/RazorBlade.City.2010.DVDRip.Xvid-LKRG.part2.rar
http://www.fileserve.com/file/YkrJ4tY/RazorBlade.City.2010.DVDRip.Xvid-LKRG.part3.rar
http://www.fileserve.com/file/8bDSEJd/RazorBlade.City.2010.DVDRip.Xvid-LKRG.part4.rar
Password
Kod:
no password
 
Član
Učlanjen(a)
24.07.2010
Poruka
45
RazorBlade City (2010) DVDRip


51trhv2fxol.jpg




38895210978676638446.gif



razorbladecity2010dvdri.jpg



49364223996564852935.gif



Plot:In a city plagued by violence, drugs, and murder, three people fight there way through a gauntlet of the worst and most fascinating characters in the city.
Genre: Action | Director: Richard Johnson|
Starring: Skarr Akbar, Michael Alban and Andre Ayala

Kod:
http://www.fileserve.com/file/NC8UnVC
 
Top