Šta je novo?

Razor Blade City (2010)

Član
Učlanjen(a)
19.04.2009
Poruka
449
Razor Blade City (2010) DVDRip Xvid-LKRG

razori.jpg

Kod:
http://www.imdb.com/title/tt1754406/
Kod:
Video
ID                               : 0
Format                           : MPEG-4 Visual
Format profile                   : Advanced [email protected]
Format settings, BVOP            : Yes
Format settings, QPel            : No
Format settings, GMC             : No warppoints
Format settings, Matrix          : Default (H.263)
Muxing mode                      : Packed bitstream
Codec ID                         : XVID
Codec ID/Hint                    : XviD
Duration                         : 1h 32mn
Bit rate                         : 1 901 Kbps
Width                            : 700 pixels
Height                           : 386 pixels
Display aspect ratio             : 16:9
Frame rate                       : 29.970 fps
Color space                      : YUV
Chroma subsampling               : 4:2:0
Bit depth                        : 8 bits
Scan type                        : Progressive
Bits/(Pixel*Frame)               : 0.235
Stream size                      : 1.23 GiB (91%)
Writing library                  : XviD 1.2.1 (UTC 2008-12-04)

Audio
ID                               : 1
Format                           : AC-3
Format/Info                      : Audio Coding 3
Mode extension                   : CM (complete main)
Codec ID                         : 2000
Duration                         : 1h 32mn
Bit rate mode                    : Constant
Bit rate                         : 192 Kbps
Channel(s)                       : 2 channels
Channel positions                : Front: L R
Sampling rate                    : 48.0 KHz
Bit depth                        : 16 bits
Stream size                      : 127 MiB (9%)
Alignment                        : Aligned on interleaves
Interleave, duration             : 480 ms (14.38 video frames)
Interleave, preload duration     : 960 ms
razorscreen.jpg

dhosts.png


Kod:
http://www.fileserve.com/file/e45WSnS/RazorBlade.City.2010.DVDRip.Xvid-LKRG.part1.rar
http://www.fileserve.com/file/GdAPHUv/RazorBlade.City.2010.DVDRip.Xvid-LKRG.part2.rar
http://www.fileserve.com/file/YkrJ4tY/RazorBlade.City.2010.DVDRip.Xvid-LKRG.part3.rar
http://www.fileserve.com/file/8bDSEJd/RazorBlade.City.2010.DVDRip.Xvid-LKRG.part4.rar
Password
Kod:
no password
 
Top