Šta je novo?

Raze (2013)

  • Začetnik teme CyberWarez
  • Datum pokretanja
CyberWarez

CyberWarez

Član
Učlanjen(a)
09.05.2011
Poruka
7.549
************************************************************
Raze (2013) BRRip x264 AC3 MiLLENiUM
File Size: 895 MiB

************************************************************



INFO:
Kod:
General
Complete name                            : F:\R2013.mkv
Format                                   : Matroska
Format version                           : Version 2
File size                                : 895 MiB
Duration                                 : 1h 32mn
Overall bit rate mode                    : Variable
Overall bit rate                         : 1 359 Kbps
Encoded date                             : UTC 2014-05-21 15:37:56
Writing application                      : mkvmerge v6.9.1 ('Blue Panther') 32bit built on Apr 18 2014 18:15:44
Writing library                          : libebml v1.3.0 + libmatroska v1.4.1

Video
ID                                       : 1
Format                                   : AVC
Format/Info                              : Advanced Video Codec
Format profile                           : [email protected]
Format settings, CABAC                   : Yes
Format settings, ReFrames                : 3 frames
Codec ID                                 : V_MPEG4/ISO/AVC
Duration                                 : 1h 32mn
Bit rate mode                            : Variable
Bit rate                                 : 884 Kbps
Maximum bit rate                         : 40.0 Mbps
Width                                    : 720 pixels
Height                                   : 304 pixels
Display aspect ratio                     : 2.35:1
Frame rate mode                          : Constant
Frame rate                               : 24.000 fps
Color space                              : YUV
Chroma subsampling                       : 4:2:0
Bit depth                                : 8 bits
Scan type                                : Progressive
Bits/(Pixel*Frame)                       : 0.168
Stream size                              : 582 MiB (65%)
Writing library                          : x264 core 142 r2431 ac76440
Default                                  : Yes
Forced                                   : No

Audio
ID                                       : 2
Format                                   : AC-3
Format/Info                              : Audio Coding 3
Mode extension                           : CM (complete main)
Format settings, Endianness              : Big
Codec ID                                 : A_AC3
Duration                                 : 1h 32mn
Bit rate mode                            : Constant
Bit rate                                 : 448 Kbps
Channel(s)                               : 6 channels
Channel positions                        : Front: L C R, Side: L R, LFE
Sampling rate                            : 48.0 KHz
Bit depth                                : 16 bits
Compression mode                         : Lossy
Stream size                              : 295 MiB (33%)
Language                                 : English
Default                                  : Yes
Forced                                   : No
iMDB:
Kod:
http://www.imdb.com/title/tt2111392/


Single Extraction | No Password | Interchangeable Links: | Working 100% |

Kod:
http://uploaded.net/file/lgj6kzs7/R2013.mkv
http://rapidgator.net/file/ef31c023368773d5d54ad2dc8609b6fb/R2013.mkv.html
http://k2s.cc/file/62fd92bcc83f6/R2013.mkv
http://terafile.co/f3e914384a86/R2013.mkv
 
Top