Šta je novo?
SerbianForum

Dobrodošli na SerbianForum.org, mjesto na kojem možete pronaći apsolutno sve, mjesto druženja i odlične zabave!

Ratne priče sa Košara (2019)

  • Začetnik teme vragolancica
  • Datum pokretanja
vragolancica

vragolancica

UREDNIK


Film "Ratne priče sa Košara" prati sve ono što se tokom 67 dana borbi dešavalo na karauli Košare počev od prvih napada OVK i albanske vojske podržane NATO snagama, pa sve do povlačenja Vojske Jugoslavije nakon Kumanovskog sporazuma.
Autorka filma Slađana Zarić kaže da je tokom snimanja filma intervjuisano 70 ljudi koji su učestvovali u borbama vođenim kod karaule Košare.
"Mislim da mi o Košarama ne znamo dovoljno i ja sam upravo krenula od toga i odlučila da uradim hronologiju. Kroz potresno svedočenje tih ljudi, koja su u sito vreme i iskrena i tragična, ja sam pokušala da dočaram taj pakao koji je bio na Košarama. Sve ovo što je radio RTS zajedno sa Ministarstvom odbrane ima samo jedan cilj, a to je da tim ljudima posle 20 godina da kažemo hvala", objašnjava Slađana Zarić.
U filmu su prvi put korišćeni snimci sa albanske strane odnosno, kako je objasila autorka filma, snimci koje je RTS otkupio od albanskih novinara sa KiM.
"To je vrlo dragoceno, vrlo zanimljivo, pogotovo će biti vrlo interesantno jer ćemo u ovom filmu doneti odgovor na pitanje ko je srušio karaulu Košare u kojoj su se u tom trenutku nalazili pripadnici OVK. To su teški snimci i poginulih srpskih vojnika i OVK, prosto to je dokumentarni film koji mora da bude baziran kako na dokumentarnoj tako i na igranoj strukturi", rekla je autorka Slađana Zarić.
Film je rađen u koprodukciji sa Ministarstvom odbrane i "Zastva filmom" i prema rečima ministra odbrane Aleksandra Vulina, nikada nećemo moći da se odužimo tim ljudima koji su branili Košare.



Format : AVI
Format/Info : Audio Video Interleave
File size : 4.45 GiB
Duration : 1 h 46 min
Overall bit rate : 5 963 kb/s
Width : 1 920 pixels
Height : 1 080 pixels
Display aspect ratio : 16:9
Frame rate : 25.000 FPS
Codec ID/Hint : MP3
Duration : 1 h 46 min
Bit rate mode : Constant
Bit rate : 128 kb/s
Channel(s) : 2 channels
Sampling rate : 44.1 kHz

Hidden content
You need to reply to this thread or react to this post in order to see this content.
 
vragolancica

vragolancica

UREDNIK



Format : AVI
Format/Info : Audio Video Interleave
File size : 2.70 GiB
Duration : 1 h 46 min
Overall bit rate : 3 618 kb/s
Width : 1 280 pixels
Height : 720 pixels
Display aspect ratio : 16:9
Frame rate : 25.000 FPS
Duration : 1 h 46 min
Bit rate mode : Constant
Bit rate : 128 kb/s
Channel(s) : 2 channels
Sampling rate : 44.1 kHz

Hidden content
You need to reply to this thread or react to this post in order to see this content.
 
Wolf 13

Wolf 13

MODERATOR
Ratne priče sa Košara 720p HDrip DD5.1 x264 by Wolf
(MKV) HQ



Dokumentarni film Ratne priče sa Košara bavi se hronologijom događaja koji počinju 9. aprila 1999. godine kada su snage OVK napale državnu granicu Savezne republike Jugoslavije iz pravca Albanije. Bitka je trajala 67 dana i završena je 14. juna kada se Vojska Jugoslavije nakon potpisanog Kumanovskog sporazuma povukla sa prostora Kosova i Metohije.

„Film je posvećen svima onima koji su se borili i dali život za slobodu i odbranu otadžbine. 108 vojnika Vojske Jugoslavije poginulo je na Košarama i ja sam u filmu kroz dramatizacije događaja pokušala da što vernije dočaram te teške i tragične trenutke u kojima su mladi momci, vojnici na služenju vojnog roka starosti od 18 do 22 godine, branili granicu naše zemlje. Upravo hrabrost, posvećenost i požrtvovanost koji su ti vojnici, ti dečaci, tada pokazali je našto što je mene motivisalo da snimim ovaj film“, kaže Slađana Zarić, autorka filma i urednica dokumentarnih filmova u Informativnom programu RTS.
General
Unique ID : 220935319940782035782903632822263987765 (0xA6369847BD8F3C01B9BCBBCBD3C5BE35)
Complete name : Ratne priče sa Košara 720p HDrip DD5.1 x264 by Wolf.mkv
Format : Matroska
Format version : Version 4
File size : 1.38 GiB
Duration : 1 h 46 min
Overall bit rate : 1 858 kb/s
Encoded date : UTC 2019-04-13 13:53:51
Writing application : mkvmerge v33.0.0 ('A Little Bit of Madness') 64-bit
Writing library : libebml v1.3.7 + libmatroska v1.5.0 / Lavf58.20.100

Video
ID : 1
Format : AVC
Format/Info : Advanced Video Codec
Format profile : High@L5.1
Format settings : CABAC / 8 Ref Frames
Format settings, CABAC : Yes
Format settings, ReFrames : 8 frames
Codec ID : V_MPEG4/ISO/AVC
Duration : 1 h 46 min
Bit rate : 1 600 kb/s
Width : 1 280 pixels
Height : 720 pixels
Display aspect ratio : 16:9
Frame rate mode : Constant
Frame rate : 30.000 FPS
Color space : YUV
Chroma subsampling : 4:2:0
Bit depth : 8 bits
Scan type : Progressive
Bits/(Pixel*Frame) : 0.058
Stream size : 1.19 GiB (86%)
Title : Ratne priče sa Košara
Writing library : x264 core 157 r2935 545de2f
Encoding settings : cabac=1 / ref=8 / deblock=1:-1:-1 / analyse=0x3:0x133 / me=umh / subme=9 / psy=1 / psy_rd=1.00:0.15 / mixed_ref=1 / me_range=16 / chroma_me=1 / trellis=2 / 8x8dct=1 / cqm=0 / deadzone=21,11 / fast_pskip=1 / chroma_qp_offset=-3 / threads=6 / lookahead_threads=1 / sliced_threads=0 / nr=0 / decimate=1 / interlaced=0 / bluray_compat=0 / constrained_intra=0 / bframes=3 / b_pyramid=2 / b_adapt=2 / b_bias=0 / direct=3 / weightb=1 / open_gop=0 / weightp=2 / keyint=300 / keyint_min=30 / scenecut=40 / intra_refresh=0 / rc_lookahead=60 / rc=2pass / mbtree=1 / bitrate=1600 / ratetol=1.0 / qcomp=0.60 / qpmin=0 / qpmax=69 / qpstep=4 / cplxblur=20.0 / qblur=0.5 / vbv_maxrate=300000 / vbv_bufsize=300000 / nal_hrd=none / filler=0 / ip_ratio=1.40 / aq=1:1.00
Language : Serbian
Default : Yes
Forced : No
Color range : Limited
Color primaries : BT.709
Transfer characteristics : BT.709
Matrix coefficients : BT.709

Audio
ID : 2
Format : E-AC-3
Format/Info : Enhanced AC-3
Commercial name : Dolby Digital Plus
Codec ID : A_EAC3
Duration : 1 h 46 min
Bit rate mode : Constant
Bit rate : 256 kb/s
Channel(s) : 6 channels
Channel layout : L R C LFE Ls Rs
Sampling rate : 48.0 kHz
Frame rate : 31.250 FPS (1536 SPF)
Compression mode : Lossy
Delay relative to video : -5 ms
Stream size : 195 MiB (14%)
Title : Ratne priče sa Košara“
Language : Serbian
Service kind : Complete Main
Default : Yes
Forced : No

Hidden content
You need to react to this post in order to see this content.

Hidden content
You need to react to this post in order to see this content.

 
Top