Šta je novo?

Rat uzivo aka War Live (2000)

MODERATOR
Učlanjen(a)
10.10.2009
Poruka
13.322
Rat uzivo (2000) DVDrip AC3 5.1 x264 by Wolf
(MKV)

3429_rat_uzivo.jpg


Kod:
  https://www.imdb.com/title/tt0269763/

General
Unique ID : 30083347742382374658439962687724599429 (0x16A1D78EEA059848E549A854AF083885)
Complete name : Rat uzivo (2000) DVDrip AC3 5.1 x264 by Wolf.mkv
Format : Matroska
Format version : Version 4
File size : 1.22 GiB
Duration : 1 h 39 min
Overall bit rate : 1 757 kb/s
Encoded date : UTC 2018-12-16 11:25:42 / UTC 2018-12-16T08:09:32Z
Writing application : mkvmerge v29.0.0 ('Like It Or Not') 64-bit
Writing library : libebml v1.3.6 + libmatroska v1.4.9 / Lavf57.7.2

Video
ID : 1
Format : AVC
Format/Info : Advanced Video Codec
Format profile : High@L5.1
Format settings : CABAC / 8 Ref Frames
Format settings, CABAC : Yes
Format settings, ReFrames : 8 frames
Codec ID : V_MPEG4/ISO/AVC
Duration : 1 h 39 min
Bit rate : 1 500 kb/s
Width : 718 pixels
Height : 432 pixels
Display aspect ratio : 16:9
Original display aspect rat : 16:9
Frame rate mode : Constant
Frame rate : 25.000 FPS
Color space : YUV
Chroma subsampling : 4:2:0
Bit depth : 8 bits
Scan type : Progressive
Bits/(Pixel*Frame) : 0.193
Stream size : 1.02 GiB (83%)
Title : Rat uzivo (2000)
Writing library : x264 core 155 r2901 7d0ff22
Encoding settings : cabac=1 / ref=8 / deblock=1:-1:-1 / analyse=0x3:0x133 / me=umh / subme=9 / psy=1 / psy_rd=1.00:0.15 / mixed_ref=1 / me_range=16 / chroma_me=1 / trellis=2 / 8x8dct=1 / cqm=0 / deadzone=21,11 / fast_pskip=1 / chroma_qp_offset=-3 / threads=6 / lookahead_threads=1 / sliced_threads=0 / nr=0 / decimate=1 / interlaced=0 / bluray_compat=0 / constrained_intra=0 / bframes=3 / b_pyramid=2 / b_adapt=2 / b_bias=0 / direct=3 / weightb=1 / open_gop=0 / weightp=2 / keyint=250 / keyint_min=25 / scenecut=40 / intra_refresh=0 / rc_lookahead=60 / rc=2pass / mbtree=1 / bitrate=1500 / ratetol=1.0 / qcomp=0.60 / qpmin=0 / qpmax=69 / qpstep=4 / cplxblur=20.0 / qblur=0.5 / vbv_maxrate=300000 / vbv_bufsize=300000 / nal_hrd=none / filler=0 / ip_ratio=1.40 / aq=1:1.00
Language : Serbian
Default : Yes
Forced : No
Color range : Limited
Color primaries : BT.601 PAL
Transfer characteristics : BT.709
Matrix coefficients : BT.601
Statistics Tags Issue : mkvmerge v29.0.0 ('Like It Or Not') 64-bit 2018-12-16 11:25:42 / mkvmerge v29.0.0 ('Like It Or Not') 64-bit 2018-12-16 11:25:42 / UTC 2018-12-16T08:09:32Z
FromStats_BitRate : 1499854
FromStats_Duration : 01:39:14.960000000
FromStats_FrameCount : 148874
FromStats_StreamSize : 1116446951

Audio
ID : 2
Format : AC-3
Format/Info : Audio Coding 3
Commercial name : Dolby Digital
Codec ID : A_AC3
Duration : 1 h 39 min
Bit rate mode : Constant
Bit rate : 256 kb/s
Channel(s) : 6 channels
Channel layout : L R C LFE Ls Rs
Sampling rate : 48.0 kHz
Frame rate : 31.250 FPS (1536 SPF)
Bit depth : 16 bits
Compression mode : Lossy
Delay relative to video : 3 s 856 ms
Stream size : 182 MiB (15%)
Title : Rat uzivo (2000)
Language : Serbian
Service kind : Complete Main
Default : Yes
Forced : No
Statistics Tags Issue : mkvmerge v29.0.0 ('Like It Or Not') 64-bit 2018-12-16 11:25:42 / mkvmerge v29.0.0 ('Like It Or Not') 64-bit 2018-12-16 11:25:42 / UTC 2018-12-16T08:09:32Z
FromStats_BitRate : 256000
FromStats_Duration : 01:39:11.072000000
FromStats_FrameCount : 185971
FromStats_StreamSize : 190434304

Text
ID : 3
Format : UTF-8
Codec ID : S_TEXT/UTF8
Codec ID/Info : UTF-8 Plain Text
Title : RAT UZIVO
Language : Serbian
Default : Yes
Forced : No
Statistics Tags Issue : mkvmerge v29.0.0 ('Like It Or Not') 64-bit 2018-12-16 11:25:42 / mkvmerge v29.0.0 ('Like It Or Not') 64-bit 2018-12-16 11:25:42 / UTC 2018-12-16T08:09:32Z
FromStats_BitRate : 12
FromStats_Duration : 01:35:08.740000000
FromStats_FrameCount : 208
FromStats_StreamSize : 9040

epYscVA.png

Hidden content
You need to react to this post in order to see this content.
r6WTYAe.png

SgmAOgN.jpg
 
Top