Šta je novo?
MODERATOR
Učlanjen(a)
02.05.2009
Poruka
30.066
Rane.1998.SLOSubs.DVDRip.Xvid-DrSi

screen.png



Rane.1998.SLOSubs.DVDRip.Xvid-_Dr_Si.cd1.avi.avi.jpg

Rane.1998.SLOSubs.DVDRip.Xvid-_Dr_Si.cd2.avi.avi.jpg




Download.png



Hidden content
You need to react to this post in order to see this content.
 
Poslednja izmena od urednika:
MODERATOR
Učlanjen(a)
10.10.2009
Poruka
13.314
Rane (1998) DVDrip AC3 5.1 x264 by Wolf
(MKV)

HuFrCVn.jpg


Kod:
  https://www.imdb.com/title/tt0165546/

General
Unique ID : 50308057327511481133313830561793794170 (0x25D8FABA4AEBC784EC97CDC9EBF5607A)
Complete name : Rane (1998) DVDrip AC3 5.1 x264 by Wolf.mkv
Format : Matroska
Format version : Version 4
File size : 1.21 GiB
Duration : 1 h 38 min
Overall bit rate : 1 758 kb/s
Encoded date : UTC 2019-01-19 12:34:12
Writing application : mkvmerge v30.1.0 ('Forever And More') 64-bit
Writing library : libebml v1.3.6 + libmatroska v1.4.9 / Lavf58.20.100

Video
ID : 1
Format : AVC
Format/Info : Advanced Video Codec
Format profile : [email protected]
Format settings : CABAC / 8 Ref Frames
Format settings, CABAC : Yes
Format settings, ReFrames : 8 frames
Codec ID : V_MPEG4/ISO/AVC
Duration : 1 h 38 min
Bit rate : 1 500 kb/s
Width : 688 pixels
Height : 414 pixels
Display aspect ratio : 16:9
Frame rate mode : Constant
Frame rate : 25.000 FPS
Color space : YUV
Chroma subsampling : 4:2:0
Bit depth : 8 bits
Scan type : Progressive
Bits/(Pixel*Frame) : 0.211
Stream size : 1.04 GiB (85%)
Title : Rane (1998)
Writing library : x264 core 157 r2935 545de2f
Encoding settings : cabac=1 / ref=8 / deblock=1:-1:-1 / analyse=0x3:0x133 / me=umh / subme=9 / psy=1 / psy_rd=1.00:0.15 / mixed_ref=1 / me_range=16 / chroma_me=1 / trellis=2 / 8x8dct=1 / cqm=0 / deadzone=21,11 / fast_pskip=1 / chroma_qp_offset=-3 / threads=6 / lookahead_threads=1 / sliced_threads=0 / nr=0 / decimate=1 / interlaced=0 / bluray_compat=0 / constrained_intra=0 / bframes=3 / b_pyramid=2 / b_adapt=2 / b_bias=0 / direct=3 / weightb=1 / open_gop=0 / weightp=2 / keyint=250 / keyint_min=25 / scenecut=40 / intra_refresh=0 / rc_lookahead=60 / rc=2pass / mbtree=1 / bitrate=1500 / ratetol=1.0 / qcomp=0.60 / qpmin=0 / qpmax=69 / qpstep=4 / cplxblur=20.0 / qblur=0.5 / vbv_maxrate=300000 / vbv_bufsize=300000 / nal_hrd=none / filler=0 / ip_ratio=1.40 / aq=1:1.00
Language : Serbian
Default : Yes
Forced : No
Color range : Limited
Color primaries : BT.601 PAL
Transfer characteristics : BT.709
Matrix coefficients : BT.601

Audio
ID : 2
Format : E-AC-3
Format/Info : Enhanced AC-3
Commercial name : Dolby Digital Plus
Codec ID : A_EAC3
Duration : 1 h 38 min
Bit rate mode : Constant
Bit rate : 256 kb/s
Channel(s) : 6 channels
Channel layout : L R C LFE Ls Rs
Sampling rate : 48.0 kHz
Frame rate : 31.250 FPS (1536 SPF)
Compression mode : Lossy
Delay relative to video : -45 ms
Stream size : 181 MiB (15%)
Title : Rane (1998)
Language : Serbian
Service kind : Complete Main
Default : Yes
Forced : No

epYscVA.png

Kod:
https://1fichier.com/?53zq2v8r1xqbkpj7wm4a

VCd9bak.png

GmEvqxo.jpg
 
Top