Šta je novo?

Rains of Injustice (Tropico De Sangre) (2010)

Član
Učlanjen(a)
29.05.2010
Poruka
1.100
Rains of Injustice (Tropico De Sangre) 2010 DVDRip English Dubbed


rsafev.jpg


Minerva Mirabal and her sisters are from a privileged, well-to-do family in the Dominican Republic. But as their country sinks further into despair under the iron fist of Dictator Rafael Trujillo, the sisters unite, daring to stand up again the brutal leader of their beloved land. As Trujillo s bloody reign spreads, Minerva and her sisters push harder against the dictator s heavy hand. Despite all of their efforts, the vociferous trio is faced with a gruesome end, slain in a sugar cane field in 1960.

:info:

Kod:
http://www.imdb.com/title/tt1691016/

Language : English dubbed (originally spanish)
Duration : 1h 59mn
Video : XVID | 640*368 | 1820 Kbps
Audio : Ac3 | 192 Kbps
Notes: This is an english dubbed version of the spanish film ‘Tropico de Sangre’
User Rating: 9.0/10


General Complete name :Rains.Of.Injustice.DUBBED.Xvid.AC3-T0XiC[1].avi Format : AVI Format/Info : Audio Video Interleave File size : 1.6 GB Duration : 1h 59mn Overall bit rate : 253 Kbps Writing library : VirtualDub build 32661/release Video #0 ID : 0 Format : MPEG-4 Visual Format profile : [email protected] Format settings, BVOP : No Format settings, QPel : No Format settings, GMC : No warppoints Format settings, Matrix : Custom Codec ID : XVID Codec ID/Hint : XviD Duration : 1h 59mn Bit rate : 42.6 Kbps Width : 640 pixels Height : 368 pixels Display aspect ratio : 16:9 Frame rate : 23.976 fps Resolution : 24 bits Colorimetry : 4:2:0 Scan type : Progressive Bits/(Pixel*Frame) : 0.008 Stream size : 36.5 MiB (17%) Writing library : XviD 1.2.0.dev47 (UTC 2006-11-01) Audio #1 ID : 1 Format : AC-3 Format/Info : Audio Coding 3 Codec ID : 2000 Duration : 1h 59mn Bit rate mode : Constant Bit rate : 192 Kbps Channel(s) : 2 channels Channel positions : L R Sampling rate : 48.0 KHz Stream size : 165 MiB (76%) Alignment : Split accross interleaves

:screen:

34161249775878620273.jpg

94623144254445877720.jpg






:download:

cda0c413c6.jpg


Kod:
http://hotfile.com/dl/68955348/b6a9ec1/Rains.Of.Injustice.DUBBED.Xvid.AC3-T0XiC.avi.html



8e186520fd.jpg


Kod:
http://www.fileserve.com/file/ExuJRhj http://www.fileserve.com/file/SeysuaM
:sifra:

No password
 
Top