Šta je novo?

Ragin Cajan Redneck Gators (2013)

Član
Učlanjen(a)
09.05.2011
Poruka
7.549
************************************************************
Ragin Cajan Redneck Gators (2013) BRRip H264 MAJESTiC
File Size: 1.24 GiB

************************************************************

gators.jpg


INFO:

General
Complete name : Ragin.Cajun.Redneck.Gators.2013.BRRIP.H264.AAC-MAJESTiC.mp4
Format : MPEG-4
Format profile : Base Media
Codec ID : isom
File size : 1.24 GiB
Duration : 1h 28mn
Overall bit rate mode : Variable
Overall bit rate : 2 001 Kbps

Video
ID : 1
Format : AVC
Format/Info : Advanced Video Codec
Format profile : [email protected]
Format settings, CABAC : Yes
Format settings, ReFrames : 6 frames
Codec ID : avc1
Codec ID/Info : Advanced Video Coding
Duration : 1h 28mn
Bit rate : 1 610 Kbps
Maximum bit rate : 8 141 Kbps
Width : 720 pixels
Height : 400 pixels
Display aspect ratio : 16:9
Frame rate mode : Constant
Frame rate : 23.976 fps
Color space : YUV
Chroma subsampling : 4:2:0
Bit depth : 8 bits
Scan type : Progressive
Bits/(Pixel*Frame) : 0.233
Stream size : 1 018 MiB (80%)
Writing library : x264 core 120 r2164 da19765

Audio
ID : 2
Format : AAC
Format/Info : Advanced Audio Codec
Format profile : LC
Codec ID : 40
Duration : 1h 28mn
Bit rate mode : Variable
Bit rate : 384 Kbps
Maximum bit rate : 553 Kbps
Channel(s) : 2 channels
Channel(s)_Original : 6 channels
Channel positions : Front: L C R, Side: L R, LFE
Sampling rate : 48.0 KHz
Compression mode : Lossy
Stream size : 245 MiB (19%)

iMDB:
Kod:
http://www.imdb.com/title/tt2634414/

gator.png


Single Extraction | No Password | Interchangeable Links: | Working 100% |

Kod:
http://rapidgator.net/file/e6cf8f83daf4b103babcc0fd57927adf/Redneck.Gators.2013.BRRip.MAJESTiC.part1.rar.html
http://rapidgator.net/file/8e618936afce6becb03a1dde68428d93/Redneck.Gators.2013.BRRip.MAJESTiC.part2.rar.html
http://rapidgator.net/file/fa24ce73a4611d9e8e19ef0581c3b664/Redneck.Gators.2013.BRRip.MAJESTiC.part3.rar.html

http://ul.to/x295si0g/Redneck.Gators.2013.BRRip.MAJESTiC.part1.rar
http://ul.to/rn3savi2/Redneck.Gators.2013.BRRip.MAJESTiC.part2.rar
http://ul.to/qp3v39e2/Redneck.Gators.2013.BRRip.MAJESTiC.part3.rar

http://k2s.cc/file/5e1ca840fe713/Redneck.Gators.2013.BRRip.MAJESTiC.part1.rar
http://k2s.cc/file/d2cb7846affef/Redneck.Gators.2013.BRRip.MAJESTiC.part2.rar
http://k2s.cc/file/cc63d7a4e6d2a/Redneck.Gators.2013.BRRip.MAJESTiC.part3.rar

https://www.oboom.com/RZ86HQIZ/Redneck.Gators.2013.BRRip.MAJESTiC.part1.rar
https://www.oboom.com/9R5MPV7Q/Redneck.Gators.2013.BRRip.MAJESTiC.part2.rar
https://www.oboom.com/4FAEY1SD/Redneck.Gators.2013.BRRip.MAJESTiC.part3.rar
 
  • Sviđa mi se
Reactions: wip
Top