Šta je novo?
Član
Učlanjen(a)
07.07.2009
Poruka
787
R.I.P.D. (2013) WEBRip V2 X264 AAC - BiTo sa prevodom


ripd-banner.jpg



:info:
IMDB


Kod:
[url=http://www.imdb.com/title/tt0790736/]R.I.P.D. Brigade fantôme (2013) - IMDb[/url]


:screen:


screenshot_29.png



:download:


part1
Kod:
http://turbobit.net/ywqj8la8dzc2.html
part2
Kod:
http://turbobit.net/srvzr9sfsooc.html
 
Učlanjen(a)
28.09.2013
Poruka
122
R i p d (2013)

=
R I P D (2013) BRRip x264 AC3 UNiQUE
File Size: 1,40 GiB

=

hfe8CU8.jpg


Title: R.I.P.D.
Year: 2013
Genre: Action, Comedy, Crime, Fantasy
Rating: 5.4 (15,339 votes)
Runtime: 1 h 36 min
Director: Robert Schwentke
Cast: Ryan Reynolds, Jeff Bridges, Mary-Louise Parker, Kevin Bacon
Plot:
Kod:
A recently slain cop joins a team of undead police officers working for the Rest in Peace Department and tries to find the man who murdered him.
General
Format : Matroska
Format version : Version 2
File size : 1.40 GiB
Duration : 1h 35mn
Overall bit rate mode : Variable
Overall bit rate : 2 087 Kbps
Encoded date : UTC 2013-10-17 02:07:48
Writing application : mkvmerge v6.4.1 ('Omega Point'wink.gif built on Sep 16 2013 22:05:10
Writing library : libebml v1.3.0 + libmatroska v1.4.1

Video
ID : 1
Format : AVC
Format/Info : Advanced Video Codec
Format profile : [email protected]
Format settings, CABAC : Yes
Format settings, ReFrames : 3 frames
Codec ID : V_MPEG4/ISO/AVC
Duration : 1h 35mn
Bit rate mode : Variable
Bit rate : 1 701 Kbps
Maximum bit rate : 40.0 Mbps
Width : 720 pixels
Height : 304 pixels
Display aspect ratio : 2.35:1
Frame rate : 23.976 fps
Color space : YUV
Chroma subsampling : 4:2:0
Bit depth : 8 bits
Scan type : Progressive
Bits/(Pixel*Frame) : 0.324
Stream size : 1.11 GiB (80%)
Writing library : x264 core 138 r2358 9e941d1
Default : Yes
Forced : No

Audio
ID : 2
Format : AC-3
Format/Info : Audio Coding 3
Mode extension : CM (complete main)
Format settings, Endianness : Big
Codec ID : A_AC3
Duration : 1h 35mn
Bit rate mode : Constant
Bit rate : 384 Kbps
Channel(s) : 6 channels
Channel positions : Front: L C R, Side: L R, LFE
Sampling rate : 48.0 KHz
Bit depth : 16 bits
Compression mode : Lossy
Stream size : 263 MiB (18%)
Language : English
Default : Yes
Forced : No

Imdb Url:

Kod:
http://www.imdb.com/title/tt0790736/
Movie Trailer:
Kod:
http://www.youtube.com/watch?v=X07xNrVd7DU


ri1.png


ri2.png


ri3.png



DOWNLOAD:

Kod:
http://uploaded.net/file/n5j1swiz/RIPD.BRRip.UNiQUE.part1.rar
http://uploaded.net/file/mgdf2vuo/RIPD.BRRip.UNiQUE.part2.rar
http://uploaded.net/file/s7vnr26i/RIPD.BRRip.UNiQUE.part3.rar

http://rapidgator.net/file/e7964b521971ba8a7de92c4d2531b57e/RIPD.BRRip.UNiQUE.part1.rar.html
http://rapidgator.net/file/97df099105cb20de0f12ea6f6803b99c/RIPD.BRRip.UNiQUE.part2.rar.html
http://rapidgator.net/file/8402ba21d54038a876e8ad55abb5c777/RIPD.BRRip.UNiQUE.part3.rar.html

http://netload.in/dateimlVucsXMgh/RIPD.BRRip.UNiQUE.part1.rar.htm
http://netload.in/dateiMKTQ99EdWp/RIPD.BRRip.UNiQUE.part2.rar.htm
http://netload.in/dateiUBt1smwCen/RIPD.BRRip.UNiQUE.part3.rar.htm

http://fileparadox.in/rm1zs0d0ao7j/RIPD.BRRip.UNiQUE.part1.rar
http://fileparadox.in/il1lcjkwyowe/RIPD.BRRip.UNiQUE.part2.rar
http://fileparadox.in/8z54f6ur21bz/RIPD.BRRip.UNiQUE.part3.rar
 
Poslednja izmena od urednika:
MODERATOR
Učlanjen(a)
10.10.2009
Poruka
13.297
ripd-firstposter-final-full.jpg


R.I.P.D.2013.BRrip.x264.by.Wolf

R.I.P.D. (2013)

Kod:
http://www1.zippyshare.com/v/23356101/file.html
http://www12.zippyshare.com/v/20601439/file.html
http://www67.zippyshare.com/v/52466824/file.html

btjo.png

 
Top