Šta je novo?

Ptice koje ne polete aka Some Birds Can't Fly (1997)

UREDNIK
Učlanjen(a)
24.03.2015
Poruka
5.171
Ptice koje ne polete (1997)


screen.png



Ptice-koje-ne-polete-1997-SF.png




info.png



Ptice koje ne polete je jugoslovenski film snimljen 1997. godine. Režirao ga je Petar Lalović, koji je napisao i scenario.


Topla i potresna ljudska priča o borbi za život, snimljena po istinitom događaju. Porodična kataklizma počinje saznanjem da kći, mlada uspešna pijanistkinja, boluje od leukemije. U razumljivoj panici i uzrujanosti, majka se seti da u udaljenoj planinskoj kućici živi njen otac, sa kojim je odavno prekinula svaku vezu. Zajedno sa bivšim mužem donosi odluku da kći odvede kod dede, koji se maksimalno posvećuje detetu i počinje da je uvodi u tajnu prirode i živih bića u njoj. Život u prirodi i borba dede za unukin život obasjava priču i ostavlja snažnu emociju na gledaoca. Priroda, životinje, ljubav, sve deluje pomalo bajkovito, ali mračni deo prirode dolazi po svoje.


Uloge:
Ivana Šurdić
Bata Živojinović
Neda Arnerić
Miodrag Krivokapić
Petar Kralj
Mihajlo Bata Paskaljević
Ljiljana Gadžić
Svetlana Bojković
Miroljub Lešo
Vojislav Mićović
Milan Kalinic ...








screen.png



Ptice-koje-ne-polete-1997-avi.jpg





Download.png



Hidden content
You need to react to this post in order to see this content.

 
Poslednja izmena:
MODERATOR
Učlanjen(a)
10.10.2009
Poruka
13.307
Ptice koje ne polete (1997) 1080p HD DD5.1 x264 by Wolf
(MKV) HQ

epz2tzH.jpg


Kod:
 https://www.imdb.com/title/tt0133162/

General
Unique ID : 163840915839934498338368380324831647711 (0x7B429CD2E85E12B76A7D52EAB71D57DF)
Complete name : Ptice koje ne polete (1997) 1080p HD DD5.1 x264 by Wolf.mkv
Format : Matroska
Format version : Version 4
File size : 1.68 GiB
Duration : 1 h 47 min
Overall bit rate : 2 234 kb/s
Encoded date : UTC 2021-03-03 17:30:49
Writing application : mkvmerge v54.0.0 ('F Maj Pixie') 64-bit
Writing library : libebml v1.4.2 + libmatroska v1.6.3

Video
ID : 1
Format : AVC
Format/Info : Advanced Video Codec
Format profile : [email protected]
Format settings : CABAC / 16 Ref Frames
Format settings, CABAC : Yes
Format settings, Reference : 16 frames
Codec ID : V_MPEG4/ISO/AVC
Duration : 1 h 47 min
Bit rate : 1 600 kb/s
Width : 1 816 pixels
Height : 1 080 pixels
Display aspect ratio : 16:9
Original display aspect rat : 5:3
Frame rate mode : Constant
Frame rate : 25.000 FPS
Color space : YUV
Chroma subsampling : 4:2:0
Bit depth : 8 bits
Scan type : Progressive
Bits/(Pixel*Frame) : 0.033
Stream size : 1.21 GiB (72%)
Title : Ptice koje ne polete (1997)
Writing library : x264 core 157 r2935 545de2f
Encoding settings : cabac=1 / ref=16 / deblock=1:-1:-1 / analyse=0x3:0x133 / me=tesa / subme=11 / psy=1 / psy_rd=1.00:0.15 / mixed_ref=1 / me_range=24 / chroma_me=1 / trellis=2 / 8x8dct=1 / cqm=0 / deadzone=21,11 / fast_pskip=0 / chroma_qp_offset=-3 / threads=6 / lookahead_threads=1 / sliced_threads=0 / nr=0 / decimate=1 / interlaced=0 / bluray_compat=0 / constrained_intra=0 / bframes=16 / b_pyramid=2 / b_adapt=2 / b_bias=0 / direct=3 / weightb=1 / open_gop=0 / weightp=2 / keyint=250 / keyint_min=25 / scenecut=40 / intra_refresh=0 / rc_lookahead=60 / rc=2pass / mbtree=1 / bitrate=1600 / ratetol=1.0 / qcomp=0.60 / qpmin=0 / qpmax=69 / qpstep=4 / cplxblur=20.0 / qblur=0.5 / vbv_maxrate=300000 / vbv_bufsize=300000 / nal_hrd=none / filler=0 / ip_ratio=1.40 / aq=1:1.00
Language : Serbian
Default : Yes
Forced : No
Color range : Limited
Color primaries : BT.709
Transfer characteristics : BT.709
Matrix coefficients : BT.709

Audio
ID : 2
Format : E-AC-3
Format/Info : Enhanced AC-3
Commercial name : Dolby Digital Plus
Codec ID : A_EAC3
Duration : 1 h 46 min
Bit rate mode : Constant
Bit rate : 256 kb/s
Channel(s) : 6 channels
Channel layout : L R C LFE Ls Rs
Sampling rate : 48.0 kHz
Frame rate : 31.250 FPS (1536 SPF)
Compression mode : Lossy
Stream size : 488 MiB (28%)
Title : Ptice koje ne polete (1997)
Language : Serbian
Service kind : Complete Main
Default : Yes
Forced : No

epYscVA.png

Hidden content
You need to react to this post in order to see this content.
zbNKcak.jpg

Hidden content
You need to react to this post in order to see this content.
0uOvCep.png


v4ComND.png
 
Top