Šta je novo?

Predestination (2014)

  • Začetnik teme CyberWarez
  • Datum pokretanja
CyberWarez

CyberWarez

Član
Učlanjen(a)
09.05.2011
Poruka
7.549
************************************************************
Predestination (2014) DVDRip XviD EVO
File Size: 959 MiB

************************************************************



INFO:
Kod:
General
Complete name                            : Predestination.2014.DVDRip.XviD-EVO.avi
Format                                   : AVI
Format/Info                              : Audio Video Interleave
File size                                : 959 MiB
Duration                                 : 1h 33mn
Overall bit rate                         : 1 429 Kbps

Video
ID                                       : 0
Format                                   : MPEG-4 Visual
Format profile                           : [email protected]
Format settings, BVOP                    : No
Format settings, QPel                    : No
Format settings, GMC                     : No warppoints
Format settings, Matrix                  : Default (H.263)
Codec ID                                 : XVID
Codec ID/Hint                            : XviD
Duration                                 : 1h 33mn
Bit rate                                 : 1 287 Kbps
Width                                    : 720 pixels
Height                                   : 304 pixels
Display aspect ratio                     : 2.35:1
Frame rate                               : 25.000 fps
Color space                              : YUV
Chroma subsampling                       : 4:2:0
Bit depth                                : 8 bits
Scan type                                : Progressive
Compression mode                         : Lossy
Bits/(Pixel*Frame)                       : 0.235
Stream size                              : 864 MiB (90%)
Writing library                          : XviD 1.1.2 (UTC 2006-11-01)

Audio
ID                                       : 1
Format                                   : MPEG Audio
Format version                           : Version 1
Format profile                           : Layer 3
Mode                                     : Joint stereo
Mode extension                           : MS Stereo
Codec ID                                 : 55
Codec ID/Hint                            : MP3
Duration                                 : 1h 33mn
Source duration                          : 1h 33mn
Bit rate mode                            : Constant
Bit rate                                 : 128 Kbps
Channel(s)                               : 2 channels
Sampling rate                            : 48.0 KHz
Compression mode                         : Lossy
Stream size                              : 85.9 MiB (9%)
Alignment                                : Split accross interleaves
Interleave, duration                     : 24 ms (0.60 video frame)
Writing library                          : LAME3.98
iMDB:
Kod:
http://www.imdb.com/title/tt2397535/



Single Extraction | No Password | Interchangeable Links: | Working 100% |

Kod:
http://rapidgator.net/file/644ccf4df23ca14baff53ef47c8a74d5/sNlZ052.EVO.rar.html
http://uploaded.net/file/lhli6dhc/sNlZ052.EVO.rar
http://k2s.cc/file/a60500f574113/sNlZ052.EVO.rar
http://www.nitroflare.com/view/66145570DF98743
 
^^GoRiLLaZ^^

^^GoRiLLaZ^^

Član
Učlanjen(a)
26.10.2009
Poruka
485
Predestination (2014) [DVDRiP x264-PSiG] [616 MB]


TiTLE ORiG.......: Predestination
TiTLE PL.........: Przeznaczenie
RELEASE DATE.....: 22-11-2014
LANGUAGE.........: English
GENRE............: Sci-Fi | Thriller
RUNTiME..........: 1h 33min.
SOURCE...........: PSiG's DVD9

ViDEO............: ~708 kbps, x264, crf
AUDiO............: ~192 kbps, 2 chnls, AC3
RESOLUTiON.......: 720 x 304
FRAMERATE........: 25.000 FPS
SiZE.............: 616 MB
IMDb:
Kod:
http://www.imdb.com/title/tt2397535/
Screenshots:


Download:
Kod:
http://ul.to/myd7t9k3
 
Top