Šta je novo?

Powder Room (2013)

  • Začetnik teme CyberWarez
  • Datum pokretanja
CyberWarez

CyberWarez

Član
Učlanjen(a)
09.05.2011
Poruka
7.549
************************************************************
Powder Room (2013) BRRip x264 AC3 MiLLENiUM
File Size: 872 MiB

************************************************************



INFO:

General
Complete name : Powder Room 2013 BRRip x264 AC3-MiLLENiUM.mkv
Format : Matroska
Format version : Version 2
File size : 852 MiB
Duration : 1h 26mn
Overall bit rate mode : Variable
Overall bit rate : 1 372 Kbps
Encoded date : UTC 2014-04-19 19:19:51
Writing application : mkvmerge v6.8.0 ('Theme for Great Cities') 32bit built on Mar 2 2014 21:27:07
Writing library : libebml v1.3.0 + libmatroska v1.4.1

Video
ID : 1
Format : AVC
Format/Info : Advanced Video Codec
Format profile : [email protected]
Format settings, CABAC : Yes
Format settings, ReFrames : 3 frames
Codec ID : V_MPEG4/ISO/AVC
Duration : 1h 26mn
Bit rate mode : Variable
Bit rate : 897 Kbps
Maximum bit rate : 40.0 Mbps
Width : 720 pixels
Height : 384 pixels
Display aspect ratio : 1.85:1
Frame rate mode : Constant
Frame rate : 23.976 fps
Color space : YUV
Chroma subsampling : 4:2:0
Bit depth : 8 bits
Scan type : Progressive
Bits/(Pixel*Frame) : 0.135
Stream size : 557 MiB (65%)
Writing library : x264 core 142 r2409 d6b4e63

Audio
ID : 2
Format : AC-3
Format/Info : Audio Coding 3
Mode extension : CM (complete main)
Format settings, Endianness : Big
Codec ID : A_AC3
Duration : 1h 26mn
Bit rate mode : Constant
Bit rate : 448 Kbps
Channel(s) : 6 channels
Channel positions : Front: L C R, Side: L R, LFE
Sampling rate : 48.0 KHz
Bit depth : 16 bits
Compression mode : Lossy
Stream size : 278 MiB (33%)
Language : English
Default : Yes
Forced : No

Plot

The comedy follows Sam, as her life is turned upside down on a big night out. When reunited with her old college friends, Sam is forced to re-evaluate her life and constructs an elaborate façade in order to convince herself and her friends that she has it all. But once her dysfunctional yet devoted trio of best mates intervene, her carefully crafted charade begins to crumble amidst the shots, cigarettes, ciders and toilet transgressions. Faced with some very harsh realities, Sam must struggle to remain true to herself and reassess exactly what she wants from life.
iMDB:
Kod:
http://www.imdb.com/title/tt2608726/






Single Extraction | No Password | Interchangeable Links: | Working 100% |


DOWNLOAD SINGLE LINKS:
Kod:
http://rapidgator.net/file/022f470bfccd4c5111ac22a34f334360/P0wDeR00M.BRRip.MiLLENiUM.rar.html
http://ul.to/kmzpz6lc/P0wDeR00M.BRRip.MiLLENiUM.rar
http://k2s.cc/file/0ebfe9e185eb3/P0wDeR00M.BRRip.MiLLENiUM.rar
https://www.oboom.com/UTY9OV1K/P0wDeR00M.BRRip.MiLLENiUM.rar
 
bane74

bane74

Član
Učlanjen(a)
26.11.2009
Poruka
1.674
Powder Room (2013) BRRip x264 AC3-MiLLENiUM



Kod:
http://www.imdb.com/title/tt2608726/


Language:English

Kod:
http://ul.to/uuxm7ssu

Kod:
http://rapidgator.net/file/2410c900c19721deebb90a707869d216/Zenskitoalet-CP.rar.html

Kod:
http://www.kingfiles.net/lpih5x8af1qp/Zenskitoalet-CP.rar

Kod:
http://fileparadox.in/q3kt8k7122u0/Zenskitoalet-CP.rar

Kod:
http://uploadrocket.net/cou97vh72pfw/Zenskitoalet-CP.rar.html

Kod:
http://4upfiles.com/8032z3zg6q4d
 
Top