Šta je novo?

Povratak otpisanih aka The Written Off Return (1976)

  • Začetnik teme katamaniak
  • Datum pokretanja
katamaniak

katamaniak

UREDNIK
Učlanjen(a)
24.03.2015
Poruka
4.715
Povratak otpisanih (1976)













„Povratak otpisanih“ je jugoslovenski ratni film iz 1976. godine. Film je nastao zbog velike popularnosti istoimene serije, i predstavalja nastavak filma „Otpisani“. Scenario za film su napisali Dragan Marković i Gordan Mihić, a režirao ga je Aleksandar Đorđević.

U leto 1944, Prle i Tihi, mladi ali već iskusni partizanski borci, zajedno sa Jocom, starim i ćudljivim radio-operatorom, dobijaju zadatak da se probiju u Beograd koji je još uvek pod okupacijom. Dok se partizanske snage približavaju gradu, Prle, Tihi i Joca moraju da nastave svoj prikriveni rad kako bi pripremili grad za oslobođenje. Gestapo i Specijalna policija čekaju svoju priliku da ih uhvate još od 1941. godine.

Odlična glumačka ekipa će vas oduševiti i ovog puta, mada verujemo da nema nekoga ko ovaj film a i seriju nije gledao više puta.

Žanr: akcija, ratni
Godina: 1976
Reziser: Aleksandar Đorđević
Scenario: Dragan Marković, Gordan Mihić
Uloge: Pavle Vujisić, Dragan Nikolić, Vojislav Brajović
Award: 1 osvojena
Studio: Avala Film
Zemlja: Jugoslavija
Jezik: Srpski



















Hidden content
You need to react to this post in order to see this content.

 
Poslednja izmena od urednika:
Wolf 13

Wolf 13

MODERATOR
Učlanjen(a)
10.10.2009
Poruka
13.278
Povratak otpisanih (1976) DVDrip E-AC3 x264 by Wolf
(MKV)



Kod:
 https://www.imdb.com/title/tt0075094/
General
Unique ID : 143311995935966796923864840102678111301 (0x6BD0E2ED7D3E071CE7C5642820B02445)
Complete name : Povratak otpisanih (1976) DVDrip E-AC3 x264 by Wolf.mkv
Format : Matroska
Format version : Version 4 / Version 2
File size : 1.09 GiB
Duration : 1 h 28 min
Overall bit rate : 1 758 kb/s
Encoded date : UTC 2018-11-01 18:07:42 / UTC 2018-11-01T12:41:34Z
Writing application : mkvmerge v28.2.0 ('The Awakening') 64-bit
Writing library : libebml v1.3.6 + libmatroska v1.4.9 / Lavf57.7.2

Video
ID : 1
Format : AVC
Format/Info : Advanced Video Codec
Format profile : High [email protected]
Format settings : CABAC / 8 Ref Frames
Format settings, CABAC : Yes
Format settings, ReFrames : 8 frames
Codec ID : V_MPEG4/ISO/AVC
Duration : 1 h 28 min
Bit rate : 1 500 kb/s
Width : 702 pixels
Height : 576 pixels
Display aspect ratio : 16:10
Original display aspect rat : 4:3
Frame rate mode : Constant
Frame rate : 25.000 FPS
Color space : YUV
Chroma subsampling : 4:2:0
Bit depth : 10 bits
Scan type : Progressive
Bits/(Pixel*Frame) : 0.148
Stream size : 930 MiB (83%)
Title : Povratak otpisanih (1976)
Writing library : x264 core 155 r2901 7d0ff22
Encoding settings : cabac=1 / ref=8 / deblock=1:-1:-1 / analyse=0x3:0x133 / me=umh / subme=9 / psy=1 / psy_rd=1.00:0.15 / mixed_ref=1 / me_range=16 / chroma_me=1 / trellis=2 / 8x8dct=1 / cqm=0 / deadzone=21,11 / fast_pskip=1 / chroma_qp_offset=-3 / threads=6 / lookahead_threads=1 / sliced_threads=0 / nr=0 / decimate=1 / interlaced=0 / bluray_compat=0 / constrained_intra=0 / bframes=3 / b_pyramid=2 / b_adapt=2 / b_bias=0 / direct=3 / weightb=1 / open_gop=0 / weightp=2 / keyint=250 / keyint_min=25 / scenecut=40 / intra_refresh=0 / rc_lookahead=60 / rc=2pass / mbtree=1 / bitrate=1500 / ratetol=1.0 / qcomp=0.60 / qpmin=0 / qpmax=81 / qpstep=4 / cplxblur=20.0 / qblur=0.5 / vbv_maxrate=150000 / vbv_bufsize=187500 / nal_hrd=none / filler=0 / ip_ratio=1.40 / aq=1:1.00
Language : Serbian
Default : Yes
Forced : No
Color range : Limited
Color primaries : BT.601 PAL
Transfer characteristics : BT.709
Matrix coefficients : BT.601
Statistics Tags Issue : mkvmerge v28.2.0 ('The Awakening') 64-bit 2018-11-01 18:07:42 / mkvmerge v28.2.0 ('The Awakening') 64-bit 2018-11-01 18:07:42 / UTC 2018-11-01T12:41:34Z
FromStats_BitRate : 1499848
FromStats_Duration : 01:28:37.520000000
FromStats_FrameCount : 132938
FromStats_StreamSize : 996934592

Audio
ID : 2
Format : E-AC-3
Format/Info : Enhanced Audio Coding 3
Codec ID : A_EAC3
Duration : 1 h 28 min
Bit rate mode : Constant
Bit rate : 256 kb/s
Channel(s) : 6 channels
Channel positions : Front: L C R, Side: L R, LFE
Sampling rate : 48.0 kHz
Frame rate : 187.500 FPS (256 SPF)
Compression mode : Lossy
Delay relative to video : -85 ms
Stream size : 162 MiB (15%)
Title : Povratak otpisanih (1976)
Language : Serbian
Service kind : Complete Main
Default : Yes
Forced : No
Statistics Tags Issue : mkvmerge v28.2.0 ('The Awakening') 64-bit 2018-11-01 18:07:42 / mkvmerge v28.2.0 ('The Awakening') 64-bit 2018-11-01 18:07:42 / UTC 2018-11-01T12:41:34Z
FromStats_BitRate : 256000
FromStats_Duration : 01:28:37.504000000
FromStats_FrameCount : 166172
FromStats_StreamSize : 170160128

Text
ID : 3
Format : UTF-8
Codec ID : S_TEXT/UTF8
Codec ID/Info : UTF-8 Plain Text
Title : Povratak otpisanih (1976)
Language : Serbian
Default : Yes
Forced : No
Statistics Tags Issue : mkvmerge v28.2.0 ('The Awakening') 64-bit 2018-11-01 18:07:42 / mkvmerge v28.2.0 ('The Awakening') 64-bit 2018-11-01 18:07:42 / UTC 2018-11-01T12:41:34Z
FromStats_BitRate : 6
FromStats_Duration : 00:03:35.480000000
FromStats_FrameCount : 7
FromStats_StreamSize : 179

Hidden content
You need to react to this post in order to see this content.

 
Top