Šta je novo?

Ploey-you never fly alone aka Цврле-никад не летиш сам (2018)

  • Začetnik teme simark
  • Datum pokretanja
S

simark

Učlanjen(a)
05.09.2009
Poruka
190
Цврле-никад не летиш сам
на српском и енглеском језику
Ploey - you never fly alone

Lói Þú Flýgur Aldrei Einn


Цртани на српском (и енглеском) језику скорашње продукције. У вишој резолуцији и са малом величином фајла.



Complete name : Цврле-никад не летиш сам - Lói Þú Flýgur Aldrei Einn - Ploey.2018.720p.BluRay.x264.Dual-simark.mkv

File size : 758 MiB
Duration : 1 h 22 min

Video
Codec ID : V_MPEG4/ISO/AVC
Bit rate : 1 050 kb/s
Width : 1 280 pixels
Height : 534 pixels
Display aspect ratio : 2.40:1
Frame rate : 24.000 FPS
Stream size : 620 MiB (82%)

Audio #1
Codec ID : A_AAC-2
Bit rate : 96.0 kb/s
Channel(s) : 2 channels
Sampling rate : 48.0 kHz
Stream size : 56.5 MiB (7%)
Language : Serbian

Audio #2
Codec ID : A_AAC-2
Bit rate : 136 kb/s
Channel(s) : 2 channels
Sampling rate : 48.0 kHz
Stream size : 80.5 MiB (11%)
Language : English



Hidden content
You need to react to this post in order to see this content.
Нема шифре...
 
Poslednja izmena:
Top