Šta je novo?

Plasticni Isus aka Plastic Jesus (1971)

  • Začetnik teme Shane
  • Datum pokretanja
dragansd84

dragansd84

VIP IPTV
Učlanjen(a)
09.12.2012
Poruka
19.646
Plasticni Isus (1971)



http://www.imdb.com/title/tt0067585/

"Plastični Isus" je kontroverzni portret buntovnog filmaša, koji oštro kritizira tadašnji jugo-establišment, prvi put kad je zabranjen redatelj je uhićen i zatvoren, a drugi put kada je poslije dvadesetak godina javno prikazan. Oba puta, nije se radilo o filmu, nego o politici.

Zagrepčanin Tom, bez sredstava za život, pokušava se baviti filmom u Beogradu. Nekako preživljava uz žene koje ga prihvaćaju. On ne vjeruje ni u koga, ne poštuje ništa, osjetljiv je na poredak i silu, na vođe i ideologije, u stalnom je sukobu sa važećim poretkom. Pošto ga je napustila luckasta Amerikanka, Tom se vezuje za ženu čiji je muž u inozemstvu. Kad ga ona izbaci, on se useli kod sestre njenog muža koja ga na kraju u nastupu ljubomore, ubije. Glavna radnja se odvija na fonu sitnih događaja svakodnevice i u kontekstu krupnih povijesnih kretanja pred 1968. godinu, sa preplitanjem suvremenih i prošlih zbivanja, pod budnim okom vođa svih vrsta. U stvari, raznovrstan filmski materijal je jedino čime se Tom sa strašću bavio u svom životu.

Lazar Stojanović je u film ubacio arhivske snimke ustaša, četnika, Hitlera i Tita, pomoću kojih uspoređuje te režime. Također, u filmu se prvi put pokreću tadašnje tabu teme, poput homoseksualnosti i promiskuiteta, a i prvi put se u jugoslavenskom filmu pojavljuje goli muškarac.

Stojanović je ovim filmom uvršten među redatelje takozvanog crnog vala, a dobitnik je i Nagrade međunarodnog žirija kritike na festivalu u Montrealu 1991. godine."









Hidden content
You need to react to this post in order to see this content.
 
Nikola096

Nikola096

Učlanjen(a)
13.12.2012
Poruka
328
Plasticni Isus (1971) - Restaurirana verzija 1080p



Tom dolazi u Beograd da snimi film, ali mu to baš ne polazi za rukom. Usput stupa u vezu sa nekoliko žena, od kojih ga jedna, u nastupu ljubomore, ubija. Prilicno trivijalna radnja, ali je ono što se pojavljuje oko nje zapravo suština zbog koje je film sakriven od javnosti, a reditelj dopao zatvora. Stojanovic ubacuje arhivske snimke ustaša, cetnika, Adolfa Hitlera i Tita, pomocu kojih uporeduje ove totalitarne režime. Takode, u filmu se pokrecu i tadašnje tabu teme poput homoseksualnosti i promiskuiteta. Takode, to je prvi jugoslovenski film u kome se pojavljuje go muškarac.

Uloge: Tomislav Gotovac Tom Adolf Hitler Licno Ante Pavelic Licno Josip Broz Tito Licno Ljubiša Ristic Mida Stevanovic Vukica Ðilas Svetlana Gligorijevic

Režija: Lazar Stojanovic

Žanr: Drama


Hidden content
You need to react to this post in order to see this content.
 
Wolf 13

Wolf 13

MODERATOR
Učlanjen(a)
10.10.2009
Poruka
13.278
Plasticni Isus (1971) 1080p Remastered DD5.1 x264 by Wolf
(MKV)



Kod:
  https://www.imdb.com/title/tt0067585/
General
Unique ID : 202730304614299148701649376836114884650 (0x98846FB9D1FDDCDDE6705C104652A82A)
Complete name : Plasticni Isus (1971) 1080p Remastered DD5.1 x264 by Wolf.mkv
Format : Matroska
Format version : Version 4
File size : 1.03 GiB
Duration : 1 h 15 min
Overall bit rate : 1 958 kb/s
Encoded date : UTC 2019-02-05 16:30:00
Writing application : mkvmerge v30.1.0 ('Forever And More') 64-bit
Writing library : libebml v1.3.6 + libmatroska v1.4.9 / Lavf58.20.100

Video
ID : 1
Format : AVC
Format/Info : Advanced Video Codec
Format profile : [email protected]
Format settings : CABAC / 8 Ref Frames
Format settings, CABAC : Yes
Format settings, ReFrames : 8 frames
Codec ID : V_MPEG4/ISO/AVC
Duration : 1 h 15 min
Bit rate : 1 700 kb/s
Width : 1 920 pixels
Height : 1 080 pixels
Display aspect ratio : 16:9
Original display aspect rat : 4:3
Frame rate mode : Constant
Frame rate : 25.000 FPS
Color space : YUV
Chroma subsampling : 4:2:0
Bit depth : 8 bits
Scan type : Progressive
Bits/(Pixel*Frame) : 0.033
Stream size : 918 MiB (87%)
Title : Plasticni Isus (1971)
Writing library : x264 core 157 r2935 545de2f
Encoding settings : cabac=1 / ref=8 / deblock=1:-1:-1 / analyse=0x3:0x133 / me=umh / subme=9 / psy=1 / psy_rd=1.00:0.15 / mixed_ref=1 / me_range=16 / chroma_me=1 / trellis=2 / 8x8dct=1 / cqm=0 / deadzone=21,11 / fast_pskip=1 / chroma_qp_offset=-3 / threads=6 / lookahead_threads=1 / sliced_threads=0 / nr=0 / decimate=1 / interlaced=0 / bluray_compat=0 / constrained_intra=0 / bframes=3 / b_pyramid=2 / b_adapt=2 / b_bias=0 / direct=3 / weightb=1 / open_gop=0 / weightp=2 / keyint=250 / keyint_min=25 / scenecut=40 / intra_refresh=0 / rc_lookahead=60 / rc=2pass / mbtree=1 / bitrate=1700 / ratetol=1.0 / qcomp=0.60 / qpmin=0 / qpmax=69 / qpstep=4 / cplxblur=20.0 / qblur=0.5 / vbv_maxrate=300000 / vbv_bufsize=300000 / nal_hrd=none / filler=0 / ip_ratio=1.40 / aq=1:1.00
Language : Serbian
Default : Yes
Forced : No
Color range : Limited
Color primaries : BT.709
Transfer characteristics : BT.709
Matrix coefficients : BT.709

Audio
ID : 2
Format : E-AC-3
Format/Info : Enhanced AC-3
Commercial name : Dolby Digital Plus
Codec ID : A_EAC3
Duration : 1 h 15 min
Bit rate mode : Constant
Bit rate : 256 kb/s
Channel(s) : 6 channels
Channel layout : L R C LFE Ls Rs
Sampling rate : 48.0 kHz
Frame rate : 31.250 FPS (1536 SPF)
Compression mode : Lossy
Stream size : 138 MiB (13%)
Title : Plasticni Isus (1971)
Language : Serbian
Service kind : Complete Main
Default : Yes
Forced : No

Hidden content
You need to react to this post in order to see this content.



...Hvala Nikola
 
Chernobyl

Chernobyl

Učlanjen(a)
06.10.2009
Poruka
284




Plasticni Isus (1971) 1080p Remastered DD5.1 x264 by VIP Kinoteka

Hidden content
You need to reply to this thread or react to this post in order to see this content.
 
Top