Šta je novo?

Pettson & Findus -movies aka Петсон и Финдус-филмови (2000,2009)

  • Začetnik teme simark
  • Datum pokretanja
S

simark

Učlanjen(a)
05.09.2009
Poruka
189
Петсон и Финдус - Мачка астронаут
- на српском (и шведском) језику

Pettson och Findus - Kattonauten (ser & swe)

Старији цртани (2000 год.) на српском за све узрасте. Једна од многих шведских прича о старцу и његовом мачку. Осим српског остављен је
и шведски језик, цртани је у нижој резолуцији сa одличним снимком. Уживајте...

Complete name :Петсон и Финдус-мачка астронаут
- Pettson och Findus - Kattonauten (2000) DVDRip Dual Mp3-simark.mkv


File size : 777 MiB
Duration : 1 h 15 min

Video
Codec ID/Hint : XviD
Bit rate : 1 144 kb/s
Width : 576 pixels
Height : 320 pixels
Display aspect ratio : 16:9
Frame rate mode : Constant
Frame rate : 25.000 FPS
Stream size : 619 MiB (80%)
Writing library : XviD 1.0.2

Audio #1
Codec ID/Hint : MP3
Bit rate mode : Constant
Bit rate : 160 kb/s
Channel(s) : 2 channels
Sampling rate : 48.0 kHz
Stream size : 85.8 MiB (11%)
Language : Serbian

Audio #2
Codec ID/Hint : MP3
Bit rate mode : Variable
Bit rate : 131 kb/s
Channel(s) : 2 channels
Sampling rate : 48.0 kHz
Stream size : 70.9 MiB (9%)
Language : Swedish

Hidden content
You need to react to this post in order to see this content.
Нема шифре...
 
Poslednja izmena:
S

simark

Učlanjen(a)
05.09.2009
Poruka
189
Петсон и Финдус-заборавност
на српском и шведском језику

Pettson och Findus-Glomligheter 2009

Ево још једног цртаног на српском језику са
догодовштинама старца Петсона и мачка
Финдуса. Остављен и шведски језик.
Уживајте...

Complete name :Петсон и Финдус-заборавност - Pettson.Och.Findus.Glomligheter.2009.SWEDISH.DVDRip.X264.Dual-simark.mkv

File size : 542 MiB
Duration : 1 h 7 min

Video
Codec ID : V_MPEG4/ISO/AVC
Bit rate : 868 kb/s
Width : 688 pixels
Height : 384 pixels
Display aspect ratio : 16:9
Frame rate mode : Constant
Frame rate : 25.000 FPS
Stream size : 417 MiB (77%)
Writing library : x264 core 142

Audio #1
Codec ID : A_AAC-2
Bit rate : 128 kb/s
Channel(s) : 2 channels
Sampling rate : 48.0 kHz
Stream size : 61.4 MiB (11%)
Language : Serbian


Audio #2
Codec ID : A_AAC-2
Bit rate : 128 kb/s
Channel(s) : 2 channels
Sampling rate : 48.0 kHz
Stream size : 61.6 MiB (11%)
Language : Swedish

Hidden content
You need to react to this post in order to see this content.
Нема шифре...
 
S

simark

Učlanjen(a)
05.09.2009
Poruka
189

Kod:
https://uptobox.com/c3bcjw4z7wkl
Нови линк за други пост: Петсон и Финдус-заборавност.
 
Top