Šta je novo?

Petrijin venac aka Petria's Wreath (1980)

  • Začetnik teme katamaniak
  • Datum pokretanja
Nikola096

Nikola096

Učlanjen(a)
13.12.2012
Poruka
327
Petrijin venac (1980) - Restaurirana verzija 1080p



Radnja se odvija u malom rudarskom mestu u Srbiji i obuhvata prederatni, ratni i posleratni period. Priča o tragičnom životnom putu nepismene žene sa sela, o njenom životu sa trojicom ljudi koje je volela. Njen životni put pun trpljenja, samoće, razočaranja, nadanja i ljubavi, prerasta u simbol čovekove pobede.

Uloge: Mirjana Karanović Petrija Darinka Živković stara Petrija (narator) Dragan Maksimović Miša, Petrijin drugi muž Pavle Vuisić Ljubiša Marko Nikolić Dobrivoje, Petrijin prvi muž Mića Tomić fotograf Ljiljana Krstić svekrva - Vela Bugarka Olivera Marković vračara Veljko Mandić Kamenče Miloš Žutić inženjer Marković Rade Marković Doktor Nikolić Branko Cvejić Doktor Stanimirović Dušan Antonijević Železničar Bogosava Nikšić Bolničarka (kao Bogosava Bijelić) Ljudmila Lisina Ruskinja

Režija: Srđan Karanović
Žanr: Socijalna drama


Hidden content
You need to react to this post in order to see this content.
 
Wolf 13

Wolf 13

MODERATOR
Učlanjen(a)
10.10.2009
Poruka
13.278
Petrijin venac (1980) 1080p YUkinoteka Remastered DD5.1 x264 by Wolf
(MKV)



Kod:
  https://www.imdb.com/title/tt0081331/
General
Unique ID : 92393309986832431171405414737402673804 (0x45824DE270F5D1DB5D92F36AF0C43A8C)
Complete name : Petrijin venac (1980) 1080p YUkinoteka Remastered DD5.1 x264 by Wolf.mkv
Format : Matroska
Format version : Version 4
File size : 1.25 GiB
Duration : 1 h 36 min
Overall bit rate : 1 857 kb/s
Encoded date : UTC 2019-02-04 18:18:23
Writing application : mkvmerge v30.1.0 ('Forever And More') 64-bit
Writing library : libebml v1.3.6 + libmatroska v1.4.9 / Lavf58.20.100

Video
ID : 1
Format : AVC
Format/Info : Advanced Video Codec
Format profile : [email protected]
Format settings : CABAC / 8 Ref Frames
Format settings, CABAC : Yes
Format settings, ReFrames : 8 frames
Codec ID : V_MPEG4/ISO/AVC
Duration : 1 h 36 min
Bit rate : 1 600 kb/s
Width : 1 920 pixels
Height : 1 080 pixels
Display aspect ratio : 16:9
Frame rate mode : Constant
Frame rate : 25.000 FPS
Color space : YUV
Chroma subsampling : 4:2:0
Bit depth : 8 bits
Scan type : Progressive
Bits/(Pixel*Frame) : 0.031
Stream size : 1.08 GiB (86%)
Title : Petrijin venac (1980)
Writing library : x264 core 157 r2935 545de2f
Encoding settings : cabac=1 / ref=8 / deblock=1:-1:-1 / analyse=0x3:0x133 / me=umh / subme=9 / psy=1 / psy_rd=1.00:0.15 / mixed_ref=1 / me_range=16 / chroma_me=1 / trellis=2 / 8x8dct=1 / cqm=0 / deadzone=21,11 / fast_pskip=1 / chroma_qp_offset=-3 / threads=6 / lookahead_threads=1 / sliced_threads=0 / nr=0 / decimate=1 / interlaced=0 / bluray_compat=0 / constrained_intra=0 / bframes=3 / b_pyramid=2 / b_adapt=2 / b_bias=0 / direct=3 / weightb=1 / open_gop=0 / weightp=2 / keyint=250 / keyint_min=25 / scenecut=40 / intra_refresh=0 / rc_lookahead=60 / rc=2pass / mbtree=1 / bitrate=1600 / ratetol=1.0 / qcomp=0.60 / qpmin=0 / qpmax=69 / qpstep=4 / cplxblur=20.0 / qblur=0.5 / vbv_maxrate=300000 / vbv_bufsize=300000 / nal_hrd=none / filler=0 / ip_ratio=1.40 / aq=1:1.00
Language : Serbian
Default : Yes
Forced : No
Color range : Limited
Color primaries : BT.709
Transfer characteristics : BT.709
Matrix coefficients : BT.709

Audio
ID : 2
Format : E-AC-3
Format/Info : Enhanced AC-3
Commercial name : Dolby Digital Plus
Codec ID : A_EAC3
Duration : 1 h 36 min
Bit rate mode : Constant
Bit rate : 256 kb/s
Channel(s) : 6 channels
Channel layout : L R C LFE Ls Rs
Sampling rate : 48.0 kHz
Frame rate : 31.250 FPS (1536 SPF)
Compression mode : Lossy
Stream size : 177 MiB (14%)
Title : Petrijin venac (1980)
Language : Serbian
Service kind : Complete Main
Default : Yes
Forced : No

Hidden content
You need to react to this post in order to see this content.



...Hvala Nikola
 
Top