Šta je novo?

Partizanska eskadrila (1979)

  • Začetnik teme Torrent Maniak
  • Datum pokretanja
Torrent Maniak

Torrent Maniak

MODERATOR
Učlanjen(a)
02.05.2009
Poruka
29.304
Partizanska eskadrila (1979)
















Partizanska eskadrila je jugoslovenski film iz 1979. godine koji je režirao Hajrudin Krvavac. Nosioci glavnih uloga su Bekim Fehmiu, Velimir Bata Živojinović i Ljubiša Samardžić.

U proljeće 1942. godine, je nemačko vazduhoplovstvo imalo potpunu orevlast, ne samo na nebu Jugoslavije, nego i skoro nad celom Evropom. Partizani su u to vreme imali avione koje su kao i ostalo oružje otimali od neprijatelja. Ovo je film o stvaranju partizanske avijacije i njenim prvim borbama.

















Hidden content
You need to react to this post in order to see this content.
 
Poslednja izmena:
Wolf 13

Wolf 13

MODERATOR
Učlanjen(a)
10.10.2009
Poruka
13.278
Partizanska eskadrila (1979) 720p HDTV DD5.1 x264 by Wolf
(MKV) HQ



Kod:
 https://www.imdb.com/title/tt0078832/
General
Unique ID : 180483805320651446768737097370517849542 (0x87C7EAA0B00DDBF390E9B4FAE85745C6)
Complete name : Partizanska eskadrila (1979) 720p HDTV DD5.1 x264 by Wolf.mkv
Format : Matroska
Format version : Version 4
File size : 1.60 GiB
Duration : 2 h 3 min
Overall bit rate : 1 858 kb/s
Encoded date : UTC 2020-08-08 19:10:01
Writing application : mkvmerge v49.0.0 ('Sick Of Losing Soulmates') 64-bit
Writing library : libebml v1.4.0 + libmatroska v1.6.1

Video
ID : 1
Format : AVC
Format/Info : Advanced Video Codec
Format profile : [email protected]
Format settings : CABAC / 16 Ref Frames
Format settings, CABAC : Yes
Format settings, Reference : 16 frames
Codec ID : V_MPEG4/ISO/AVC
Duration : 2 h 3 min
Bit rate : 1 600 kb/s
Width : 1 280 pixels
Height : 692 pixels
Display aspect ratio : 1.85:1
Frame rate mode : Constant
Frame rate : 25.000 FPS
Color space : YUV
Chroma subsampling : 4:2:0
Bit depth : 8 bits
Scan type : Progressive
Bits/(Pixel*Frame) : 0.072
Stream size : 1.38 GiB (86%)
Title : Partizanska eskadrila (1979)
Writing library : x264 core 157 r2935 545de2f
Encoding settings : cabac=1 / ref=16 / deblock=1:-1:-1 / analyse=0x3:0x133 / me=umh / subme=10 / psy=1 / psy_rd=1.00:0.15 / mixed_ref=1 / me_range=24 / chroma_me=1 / trellis=2 / 8x8dct=1 / cqm=0 / deadzone=21,11 / fast_pskip=1 / chroma_qp_offset=-3 / threads=6 / lookahead_threads=1 / sliced_threads=0 / nr=0 / decimate=1 / interlaced=0 / bluray_compat=0 / constrained_intra=0 / bframes=8 / b_pyramid=2 / b_adapt=2 / b_bias=0 / direct=3 / weightb=1 / open_gop=0 / weightp=2 / keyint=250 / keyint_min=25 / scenecut=40 / intra_refresh=0 / rc_lookahead=60 / rc=2pass / mbtree=1 / bitrate=1600 / ratetol=1.0 / qcomp=0.60 / qpmin=0 / qpmax=69 / qpstep=4 / cplxblur=20.0 / qblur=0.5 / vbv_maxrate=300000 / vbv_bufsize=300000 / nal_hrd=none / filler=0 / ip_ratio=1.40 / aq=1:1.00
Language : Serbian
Default : Yes
Forced : No
Color range : Limited
Color primaries : BT.709
Transfer characteristics : BT.709
Matrix coefficients : BT.709

Audio
ID : 2
Format : E-AC-3
Format/Info : Enhanced AC-3
Commercial name : Dolby Digital Plus
Codec ID : A_EAC3
Duration : 2 h 3 min
Bit rate mode : Constant
Bit rate : 256 kb/s
Channel(s) : 6 channels
Channel layout : L R C LFE Ls Rs
Sampling rate : 48.0 kHz
Frame rate : 31.250 FPS (1536 SPF)
Compression mode : Lossy
Delay relative to video : -5 ms
Stream size : 226 MiB (14%)
Title : Partizanska eskadrila (1979)
Language : Serbian
Service kind : Complete Main
Default : Yes
Forced : No

Hidden content
You need to react to this post in order to see this content.

Hidden content
You need to react to this post in order to see this content.

 
Top