Šta je novo?

Parental Guidance (2012)

Član
Učlanjen(a)
09.05.2011
Poruka
7.549
Parental Guidance (2012) 720p BluRay X264-AMIABLE
File Size: 4.37 GiB


pare.jpg



General
Complete name : Parental.Guidance.2012.720p.BluRay.X264-AMIABLE.mkv
Format : Matroska
Format version : Version 2
File size : 4.37 GiB
Duration : 1h 44mn
Overall bit rate : 5 980 Kbps
Writing application : mkvmerge v4.1.1 ('Bouncin' Back') built on Jul 3 2010 22:54:08
Writing library : libebml v1.0.0 + libmatroska v1.0

Video
ID : 1
Format : AVC
Format/Info : Advanced Video Codec
Format profile : High@L4.1
Format settings, CABAC : Yes
Format settings, ReFrames : 5 frames
Codec ID : V_MPEG4/ISO/AVC
Duration : 1h 44mn
Bit rate : 4 470 Kbps
Width : 1 280 pixels
Height : 688 pixels
Display aspect ratio : 1.85:1
Frame rate mode : Constant
Frame rate : 23.976 fps
Color space : YUV
Chroma subsampling : 4:2:0
Bit depth : 8 bits
Scan type : Progressive
Bits/(Pixel*Frame) : 0.212
Stream size : 3.18 GiB (73%)
Writing library : x264 core 130 r2273 b3065e6
Language : English
Default : Yes
Forced : No

Audio
ID : 2
Format : DTS
Format/Info : Digital Theater Systems
Mode : 16
Format settings, Endianness : Big
Codec ID : A_DTS
Duration : 1h 44mn
Bit rate mode : Constant
Bit rate : 1 509 Kbps
Channel(s) : 6 channels
Channel positions : Front: L C R, Side: L R, LFE
Sampling rate : 48.0 KHz
Bit depth : 24 bits
Compression mode : Lossy
Stream size : 1.10 GiB (25%)
Language : English
Default : Yes
Forced : No

Kod:
http://www.imdb.com/title/tt1047540/

parentalguidance2012720p.jpg



DOWNLOAD:
Kod:
http://www.netload.in/dateifo5D5c0ttN/Parental.Guidance.2012.720p.AMIABLE.part1.rar.htm
http://www.netload.in/dateiqVD9HxkIht/Parental.Guidance.2012.720p.AMIABLE.part2.rar.htm
http://www.netload.in/dateiqnhomEb3yH/Parental.Guidance.2012.720p.AMIABLE.part3.rar.htm
http://www.netload.in/dateii4mhhrLCg7/Parental.Guidance.2012.720p.AMIABLE.part4.rar.htm
http://www.netload.in/dateiFwEAWzcz4F/Parental.Guidance.2012.720p.AMIABLE.part5.rar.htm
 
Poslednja izmena od urednika:
Top