Šta je novo?
Član
Učlanjen(a)
09.05.2011
Poruka
7.549
=
Paranormal Movie (2013) 720p BluRay x264 RUSTED
File Size: 4.37 GiB

=

OYK4xqX.jpg


Title: Paranormal Movie
Year: 2013
Genre: Comedy
Rating: 2.6 (265 votes)
Runtime: N/A
Director: Kevin P. Farley
Cast: Kevin P. Farley, Carly Craig, Nicky Whelan, Eric Roberts
Plot:
Kod:
A man, long haunted by the paranormal, captures on camera the horror and hilarity he and his beautiful girlfriend encounter after moving into a new home.


General
Complete name : paranormal.movie.2013.720p.bluray.x264-rusted.mkv
Format : Matroska
Format version : Version 2
File size : 4.37 GiB
Duration : 1h 27mn
Overall bit rate : 7 115 Kbps
Writing application : mkvmerge v4.1.1 ('Bouncin' Back') built on Jul 3 2010 22:54:08
Writing library : libebml v1.0.0 + libmatroska v1.0

Video
ID : 1
Format : AVC
Format/Info : Advanced Video Codec
Format profile : High@L4.1
Format settings, CABAC : Yes
Format settings, ReFrames : 5 frames
Codec ID : V_MPEG4/ISO/AVC
Duration : 1h 27mn
Bit rate : 5 606 Kbps
Width : 1 280 pixels
Height : 720 pixels
Display aspect ratio : 16:9
Frame rate mode : Constant
Frame rate : 23.976 fps
Color space : YUV
Chroma subsampling : 4:2:0
Bit depth : 8 bits
Scan type : Progressive
Bits/(Pixel*Frame) : 0.254
Stream size : 3.35 GiB (77%)
Writing library : x264 core 140 r2377 1ca7bb9
Language : English
Default : Yes
Forced : No

Audio
ID : 2
Format : DTS
Format/Info : Digital Theater Systems
Mode : 16
Format settings, Endianness : Big
Codec ID : A_DTS
Duration : 1h 27mn
Bit rate mode : Constant
Bit rate : 1 509 Kbps
Channel count : 6 channels
Channel positions : Front: L C R, Side: L R, LFE
Sampling rate : 48.0 KHz
Bit depth : 16 bits
Compression mode : Lossy
Stream size : 948 MiB (21%)
Language : English
Default : Yes
Forced : No

Imdb Url:
Kod:
[url]http://www.imdb.com/title/tt2392846/[/url]
Movie Trailer:
Kod:
[media=youtube]S3JR53ME55g[/media]


vlcsnap-2014-01-19-18h12.png


vlcsnap-2014-01-19-18h13.png


vlcsnap-2014-01-19-18h14.png



SINGLE EXTRACTION | NO PASSWORD | INTERCHANGEABLE LINK:
Kod:
[url]http://uploaded.net/file/ugdr45ta/PaRaN0RmAlM.720.rusted.part1.rar[/url]
[url]http://uploaded.net/file/3i5wlpih/PaRaN0RmAlM.720.rusted.part2.rar[/url]
[url]http://uploaded.net/file/hy8dc4t8/PaRaN0RmAlM.720.rusted.part3.rar[/url]
[url]http://uploaded.net/file/ax5x3qsl/PaRaN0RmAlM.720.rusted.part4.rar[/url]
[url]http://uploaded.net/file/loq4c04x/PaRaN0RmAlM.720.rusted.part5.rar[/url]

[url]http://rapidgator.net/file/40d88098e8a477200cd17d134caa8c42/PaRaN0RmAlM.720.rusted.part1.rar.html[/url]
[url]http://rapidgator.net/file/a772d085cb3a3c5f94a25408e475d0ba/PaRaN0RmAlM.720.rusted.part2.rar.html[/url]
[url]http://rapidgator.net/file/8046bbf247f29d273532bd4713608065/PaRaN0RmAlM.720.rusted.part3.rar.html[/url]
[url]http://rapidgator.net/file/7d00a66232f5ae19a3262eb21e6563d1/PaRaN0RmAlM.720.rusted.part4.rar.html[/url]
[url]http://rapidgator.net/file/63b863061a9335a780eac2c0aa71125d/PaRaN0RmAlM.720.rusted.part5.rar.html[/url]

[url]http://ryushare.com/ffaunyeg5r0r/PaRaN0RmAlM.720.rusted.part1.rar[/url]
[url]http://ryushare.com/0wrj2nvijq6w/PaRaN0RmAlM.720.rusted.part2.rar[/url]
[url]http://ryushare.com/hjc10eemc9fh/PaRaN0RmAlM.720.rusted.part3.rar[/url]
[url]http://ryushare.com/xquyjgj8jc6u/PaRaN0RmAlM.720.rusted.part4.rar[/url]
[url]http://ryushare.com/7hk3t7xuloko/PaRaN0RmAlM.720.rusted.part5.rar[/url]

[url]http://lumfile.com/1lbpa5mw396z/PaRaN0RmAlM.720.rusted.part1.rar.html[/url]
[url]http://lumfile.com/zx2gk3xklae6/PaRaN0RmAlM.720.rusted.part2.rar.html[/url]
[url]http://lumfile.com/pb2xhsm7seu2/PaRaN0RmAlM.720.rusted.part3.rar.html[/url]
[url]http://lumfile.com/h69bzb0bkph1/PaRaN0RmAlM.720.rusted.part4.rar.html[/url]
[url]http://lumfile.com/55712hgk93qb/PaRaN0RmAlM.720.rusted.part5.rar.html[/url]

DOWNLOAD SINGL LINKS:
Kod:
[url]http://uploaded.net/file/a1r3vhnl/PaRaN0RmAlM.720.SingL.rar[/url]
[url]http://ryushare.com/3791f3d198df/PaRaN0RmAlM.720.SingL.rar[/url]
[url]http://lumfile.com/r4e6micm94iq/PaRaN0RmAlM.720.SingL.rar.html[/url]
 
Top