Šta je novo?
Član
Učlanjen(a)
08.09.2009
Poruka
1.437
Paradise Love (2012) 1080p BluRay - SALEM [French] [German]





Video
ID : 1
Format : AVC
Format/Info : Advanced Video Codec
Format profile : High@L4.1
Format settings, CABAC : Yes
Format settings, ReFrames : 4 frames
Codec ID : V_MPEG4/ISO/AVC
Duration : 2h 0mn
Bit rate : 9 671 Kbps
Width : 1 920 pixels
Height : 1 040 pixels
Display aspect ratio : 16:9
Frame rate : 23.976 fps
Color space : YUV
Chroma subsampling : 4:2:0
Bit depth : 8 bits
Scan type : Progressive
Bits/(Pixel*Frame) : 0.202
Stream size : 8.16 GiB


Audio
ID : 2
Format : DTS
Format/Info : Digital Theater Systems
Codec ID : A_DTS
Duration : 2h 0mn
Bit rate mode : Constant
Bit rate : 1 510 Kbps
Channel(s) : 6 channels
Channel positions : Front: L C R, Side: L R, LFE
Sampling rate : 48.0 KHz
Bit depth : 24 bits
Compression mode : Lossy
Stream size : 1.27 GiB (13%)
Title : DTS 5.1 @1509 Kbps
Language : German
Default : Yes
Forced : Yes

Text #1
ID : 3
Format : ASS
Codec ID : S_TEXT/ASS
Codec ID/Info : Advanced Sub Station Alpha
Compression mode : Lossless
Title : Subs - ASS
Language : French
Default : Yes
Forced : No

Text #2
ID : 4
Format : UTF-8
Codec ID : S_TEXT/UTF8
Codec ID/Info : UTF-8 Plain Text
Title : Subs - SRT
Language : French
Default : No
Forced : No

Kod:
http://www.imdb.com/title/tt1403214/

Kod:
http://uploaded.net/file/lnvdmx4z/Paradise.part10.rar
http://uploaded.net/file/onwhlifx/Paradise.part08.rar
http://uploaded.net/file/fo8p51hv/Paradise.part09.rar
http://uploaded.net/file/olnfccee/Paradise.part06.rar
http://uploaded.net/file/rxergka2/Paradise.part07.rar
http://uploaded.net/file/gbqbydc4/Paradise.part05.rar
http://uploaded.net/file/ippmq1kf/Paradise.part03.rar
http://uploaded.net/file/de29n053/Paradise.part04.rar
http://uploaded.net/file/8oxlgedf/Paradise.part01.rar
http://uploaded.net/file/yqo2c62e/Paradise.part02.rar
 
Top