Šta je novo?

Pandemic (2016)

  • Začetnik teme CyberWarez
  • Datum pokretanja
CyberWarez

CyberWarez

Član
Učlanjen(a)
09.05.2011
Poruka
7.549

Pandemic (2016) HDRip XviD AC3 EVO
Video: XViD/Avi | 720×304 | 23.976fps | 1761 kbps
Audio: English | Dolby AC3 48000Hz 6ch | 384 kpbs | Run Time: 01:32:03
Genre: Action | Sci-Fi | Thriller
File Size: 1.36 GiB
PLOT: Pandemic is set in the near future, where a virus of epic proportions has overtaken the planet. There are more infected than uninfected, and humanity is losing its grip on survival. Its only hope is finding a cure and keeping the infected contained. Lauren (Rachel Nichols) is a doctor, who, after the fall of New York, comes to Los Angeles to lead a team to hunt for and rescue uninfected survivors.
Stars: Rachel Nichols, Missi Pyle, Alfie Allen​

IMDB Ratings: 6.2/10 >> 82 users >> Top 250: #N/A
Metascore: N/A/100
Kod:
http://www.imdb.com/title/tt3774802/

sCREENsH0Ts




< SingLELiNK >
Kod:
http://rg.to/file/39299e18cf21ed69cef8446b1d80fad8/P16HDRipEv0.rar.html
http://uploaded.net/file/5tesyp3m/P16HDRipEv0.rar
http://k2s.cc/file/647dda2b91fae/P16HDRipEv0.rar
http://nitroflare.com/view/6E46D96A8682A15/P16HDRipEv0.rar
 
CyberWarez

CyberWarez

Član
Učlanjen(a)
09.05.2011
Poruka
7.549
Pandemic (2016) WEBRiP AC3 XViD-FGT
File Size: 1.2 GB



RELEAsEN0TEs
Kod:
ID                                       : 0
Format                                   : MPEG-4 Visual
Format settings, BVOP                    : No
Format settings, QPel                    : No
Format settings, GMC                     : No warppoints
Format settings, Matrix                  : Default (H.263)
Codec ID                                 : XVID
Codec ID/Hint                            : XviD
Duration                                 : 1h 32mn
Bit rate                                 : 1 443 Kbps
Width                                    : 720 pixels
Height                                   : 304 pixels
Display aspect ratio                     : 2.40:1
Frame rate                               : 23.976 fps
Color space                              : YUV
Chroma subsampling                       : 4:2:0
Bit depth                                : 8 bits
Scan type                                : Progressive
Compression mode                         : Lossy
Bits/(Pixel*Frame)                       : 0.275
Stream size                              : 950 MiB (79%)
Writing library                          : Lavc57.16.101

Audio
ID                                       : 1
Format                                   : AC-3
Format/Info                              : Audio Coding 3
Mode extension                           : CM (complete main)
Format settings, Endianness              : Big
Codec ID                                 : 2000
Duration                                 : 1h 32mn
Bit rate mode                            : Constant
Bit rate                                 : 384 Kbps
Channel(s)                               : 6 channels
Channel positions                        : Front: L C R, Side: L R, LFE
Sampling rate                            : 48.0 KHz
Frame rate                               : 31.250 fps (1536 spf)
Compression mode                         : Lossy
Stream size                              : 253 MiB (21%)
Alignment                                : Aligned on interleaves
Interleave, duration                     : 42 ms (1.00 video frame)
Interleave, preload duration             : 512 ms

Plot : Pandemic is set in the near future, where a virus of epic proportions has overtaken the planet. There are more infected than uninfected, and humanity is losing its grip on survival. Its only hope is finding a cure and keeping the infected contained. Lauren (Rachel Nichols) is a doctor, who, after the fall of New York, comes to Los Angeles to lead a team to hunt for and rescue uninfected survivors.
Kod:
http://www.imdb.com/title/tt3774802/
sCREENsH0Ts







D0WNL0AD
Kod:
http://rg.to/file/1ce8738180a3fe8a08298c3b10db45ee/Pandemic.WEBRiP.XViD-FGT.rar.html
http://uploaded.net/file/m9ucx9sg/Pandemic.WEBRiP.XViD-FGT.rar
http://k2s.cc/file/b9bc4f7952959/Pandemic.WEBRiP.XViD-FGT.rar
http://nitroflare.com/view/2929208621E8AF1/Pandemic.WEBRiP.XViD-FGT.rar
 
CyberWarez

CyberWarez

Član
Učlanjen(a)
09.05.2011
Poruka
7.549


Pandemic (2016) 720p / 1080p BRRip x264 ETRG
File Size: 689.71 MB / 1.35 GB

RELEAsEN0TEs
Kod:
Video:-

Format : MP4 / x264 / [email protected]
Duration : 01:32:02 
Bitrate : 2000 Kbps 
Resolution = (Width/Height) : 1920x816 pixels 
Frame Rate : 23,976 fps

Audio:-

Format : AAC
Bitrate : 96 Kbps
Channels : 2 Channels
Sample Rate : 48 KHz
Language : English 

Release info:-

Encoded/Released By : Ozlem / ETRG
Title/Year : Pandemic / 2016 
File Size : 1.34 GiB
Genre : Action, Sci-Fi, Thriller 
Source : pandemic.2016.1080p.bluray.x264-veto (Thank You)
Subtitles : N/A 
IMDB : http://www.imdb.com/title/tt3774802/

Pandemic is set in the near future, where a virus of epic proportions has overtaken the planet. There are more infected than uninfected, and humanity is losing its grip on survival. Its only hope is finding a cure and keeping the infected contained. Lauren (Rachel Nichols) is a doctor, who, after the fall of New York, comes to Los Angeles to lead a team to hunt for and rescue uninfected survivors.

Rachel Nichols :... Lauren
Missi Pyle :... Denise
Alfie Allen :... Wheeler
Mekhi Phifer :... Gunner
Kod:
http://www.imdb.com/title/tt3774802/
sCREENsH0Ts








D0WNL0AD
Kod:
http://rapidgator.net/file/84e0973009114902ad27ff0cd9604fb8/Pandemic.720p.BRRip.x264.ETRG.rar.html
http://uploaded.net/file/68q3y9sa/Pandemic.720p.BRRip.x264.ETRG.rar
http://k2s.cc/file/6c0037a5a12f0/Pandemic.720p.BRRip.x264.ETRG.rar
http://nitroflare.com/view/8F7F84E2A92B2EA/Pandemic.720p.BRRip.x264.ETRG.rar
Kod:
http://rapidgator.net/file/5b570b97b083abff0129fe54fed8226d/Pandemic.1080p.BRRip.x264.ETRG.rar.html
http://uploaded.net/file/ig1scqr6/Pandemic.1080p.BRRip.x264.ETRG.rar
http://k2s.cc/file/285fd252abae2/Pandemic.1080p.BRRip.x264.ETRG.rar
http://nitroflare.com/view/81983B026EF9A47/Pandemic.1080p.BRRip.x264.ETRG.rar
 
Top