Šta je novo?

Painted Skin The Resurrection (2012)

Član
Učlanjen(a)
09.05.2011
Poruka
7.549
Painted Skin The Resurrection (2012) 720p BluRay x264 SONiDO
Audio: Mandarin | DTS | 1510 kbps
File Size: 5,44 GiB


painted.jpg


General
Complete name : pstr_720_son.mkv
Format : Matroska
Format version : Version 2
File size : 5.44 GiB
Duration : 2h 11mn
Overall bit rate : 5 923 Kbps
Encoded date : UTC 2012-12-28 11:20:19
Writing application : mkvmerge v5.8.0 ('No Sleep / Pillow') built on Sep 2 2012 15:37:04
Writing library : libebml v1.2.3 + libmatroska v1.3.0

Video
ID : 1
Format : AVC
Format/Info : Advanced Video Codec
Format profile : [email protected]
Format settings, CABAC : Yes
Format settings, ReFrames : 5 frames
Codec ID : V_MPEG4/ISO/AVC
Duration : 2h 11mn
Bit rate : 4 421 Kbps
Width : 1 280 pixels
Height : 544 pixels
Display aspect ratio : 2.35:1
Frame rate mode : Constant
Frame rate : 23.976 fps
Color space : YUV
Chroma subsampling : 4:2:0
Bit depth : 8 bits
Scan type : Progressive
Bits/(Pixel*Frame) : 0.265
Stream size : 3.95 GiB (73%)
Writing library : x264 core 129 r2230 1cffe9f
Language : English
Default : Yes
Forced : No

Audio
ID : 2
Format : DTS
Format/Info : Digital Theater Systems
Mode : 16
Format settings, Endianness : Big
Codec ID : A_DTS
Duration : 2h 11mn
Bit rate mode : Constant
Bit rate : 1 509 Kbps
Channel(s) : 6 channels
Channel positions : Front: L C R, Side: L R, LFE
Sampling rate : 48.0 KHz
Bit depth : 24 bits
Compression mode : Lossy
Stream size : 1.39 GiB (25%)
Language : Chinese
Default : Yes
Forced : No

Kod:
http://www.imdb.com/title/tt2371411/

vlcsnap-2012-12-30-18h35.png


vlcsnap-2012-12-30-18h35.png


vlcsnap-2012-12-30-18h35.png



DOWNLOAD:
Kod:
http://www.netload.in/dateihY8Zix9zyi/Ptsr.720p.part1.rar.htm
http://www.netload.in/dateiUbjC49kT3q/Ptsr.720p.part2.rar.htm
http://www.netload.in/dateivPm2gzxXfA/Ptsr.720p.part3.rar.htm
http://www.netload.in/dateiBPFPkF08Hq/Ptsr.720p.part4.rar.htm
http://www.netload.in/dateiV2jJbmD3Zu/Ptsr.720p.part5.rar.htm
http://www.netload.in/datei7o0pAIdayC/Ptsr.720p.part6.rar.htm

http://rapidgator.net/file/66545011/Ptsr.720p.part1.rar.html
http://rapidgator.net/file/66545058/Ptsr.720p.part2.rar.html
http://rapidgator.net/file/66545062/Ptsr.720p.part3.rar.html
http://rapidgator.net/file/66545074/Ptsr.720p.part4.rar.html
http://rapidgator.net/file/66545301/Ptsr.720p.part5.rar.html
http://rapidgator.net/file/66545188/Ptsr.720p.part6.rar.html

http://uploaded.net/file/0adqiicf/Ptsr.720p.part1.rar
http://uploaded.net/file/u4tnvdyk/Ptsr.720p.part2.rar
http://uploaded.net/file/6t9tos1g/Ptsr.720p.part3.rar
http://uploaded.net/file/4jglq87h/Ptsr.720p.part4.rar
http://uploaded.net/file/lsslt687/Ptsr.720p.part5.rar
http://uploaded.net/file/bfnlv3xc/Ptsr.720p.part6.rar
 
Član
Učlanjen(a)
08.09.2009
Poruka
1.437
Painted Skin The Resurrection (2012) 720p.BluRay.x264-SONiDO

34742128136835796324.jpg


pstrsons.jpg


An ancient fox spirit embarks on a diabolical quest to become human after escaping an icy prison, and becomes bound to a disfigured princess who seeks the love of a noble guard as her kingdom crumbles in this lavish supernatural epic. Confined to a frozen cell for centuries, malevolent fox spirit Xiaowei (Xun Zhou) regains her freedom and seeks to preserve her beauty by seducing men and consuming their hearts. Should a man offer her his heart willingly, Xiaowei will become mortal, breaking free of the underworld and experiencing living among the living. Meanwhile, as a dark cloud falls over her kingdom, Princess Jing (Wei Zhao) flees, hiding her deep facial scars under a mask of pure gold while seeking the love of her former protector, who remains haunted by his failure to save her years prior. When destiny brings Xiaowei and Princess Jing together, the battle for the princess’ heart begins.

R.E.L.E.A.S.E ========> Painted.Skin.The.Resurrection.2012.720p.BluRay.x264-SONiDO

L.I.N.K ==============>
Kod:
http://www.imdb.com/title/tt2371411/

R.E.S.O.L.U.T.I.O.N===> 1280x544

A.U.D.I.O ============> dts 5.1

L.A.N.G.U.A.G.E ======> mandarin

S.U.B.T.I.T.L.E ======> english (muxed)

Kod:
http://uploaded.net/file/97nr10lb/pstrson.part6.rar
http://uploaded.net/file/ifvwq8ij/pstrson.part5.rar
http://uploaded.net/file/vg5s8zmo/pstrson.part4.rar
http://uploaded.net/file/8e9rewsd/pstrson.part1.rar
http://uploaded.net/file/5kg6j6sw/pstrson.part3.rar
http://uploaded.net/file/j1l23km3/pstrson.part2.rar
 
Top