Šta je novo?

Otac na sluzbenom putu aka When Father Was Away on Business (1985)

  • Začetnik teme MaliGrizeBeton
  • Datum pokretanja
MaliGrizeBeton

MaliGrizeBeton

Eggdrop
Učlanjen(a)
23.05.2011
Poruka
2.263
Otac na službenom putu (1985)








Priča o dečaku kroz čiju se svest i osećanja prelamaju burne pedesete godine. Vreme u kojem živi nije naklonjeno ni njemu ni njegovom ocu, zaposlenom u Ministarstvu rada. Splet intriga dovodi oca u zatvor. On je jedan od ondašnjih uhapšenika čija krivica nikad nije utvrđena. Žrtva je vremena u kojem se Jugoslavija, odupirući se naletu staljinističkog dogmatizma, našla u situaciji da počini greške. Dečak postaje svedok mnogih konfliktnih situacija. Nikad neće otkriti ujakovu ulogu u očevom hapšenju, a neće saznati ni to da je žena koja mu je poklonila toliko željenu fudbalsku loptu prouzrokovala nesreću njegove porodice...

Kod:
http://www.imdb.com/title/tt0089748/

Kod:
http://uptobox.com/53rwpl1hnddv
 
Wolf 13

Wolf 13

MODERATOR
Učlanjen(a)
10.10.2009
Poruka
13.278
Otac na sluzbenom putu (1985) DVDrip DD5.1 x264 by Wolf
(MKV) HQ



Kod:
  https://www.imdb.com/title/tt0089748/
General
Unique ID : 135093202490108275804858068490387457087 (0x65A2012016BDF799CD0288434270043F)
Complete name : Otac na sluzbenom putu (1985) DVDrip DD5.1 x264 by Wolf.mkv
Format : Matroska
Format version : Version 4
File size : 1.69 GiB
Duration : 2 h 10 min
Overall bit rate : 1 856 kb/s
Encoded date : UTC 2019-03-07 21:32:52
Writing application : mkvmerge v31.0.0 ('Dolores In A Shoestand') 64-bit
Writing library : libebml v1.3.6 + libmatroska v1.4.9 / Lavf58.20.100

Video
ID : 1
Format : AVC
Format/Info : Advanced Video Codec
Format profile : [email protected]
Format settings : CABAC / 16 Ref Frames
Format settings, CABAC : Yes
Format settings, ReFrames : 16 frames
Codec ID : V_MPEG4/ISO/AVC
Duration : 2 h 10 min
Bit rate : 1 600 kb/s
Width : 720 pixels
Height : 452 pixels
Display aspect ratio : 16:9
Original display aspect rat : 5:3
Frame rate mode : Constant
Frame rate : 25.000 FPS
Color space : YUV
Chroma subsampling : 4:2:0
Bit depth : 8 bits
Scan type : Progressive
Bits/(Pixel*Frame) : 0.197
Stream size : 1.45 GiB (86%)
Title : Otac na sluzbenom putu (1985)
Writing library : x264 core 157 r2935 545de2f
Encoding settings : cabac=1 / ref=16 / deblock=1:-1:-1 / analyse=0x3:0x133 / me=umh / subme=10 / psy=1 / psy_rd=1.00:0.15 / mixed_ref=1 / me_range=24 / chroma_me=1 / trellis=2 / 8x8dct=1 / cqm=0 / deadzone=21,11 / fast_pskip=1 / chroma_qp_offset=-3 / threads=6 / lookahead_threads=1 / sliced_threads=0 / nr=0 / decimate=1 / interlaced=0 / bluray_compat=0 / constrained_intra=0 / bframes=8 / b_pyramid=2 / b_adapt=2 / b_bias=0 / direct=3 / weightb=1 / open_gop=0 / weightp=2 / keyint=250 / keyint_min=25 / scenecut=40 / intra_refresh=0 / rc_lookahead=60 / rc=2pass / mbtree=1 / bitrate=1600 / ratetol=1.0 / qcomp=0.60 / qpmin=0 / qpmax=69 / qpstep=4 / cplxblur=20.0 / qblur=0.5 / vbv_maxrate=300000 / vbv_bufsize=300000 / nal_hrd=none / filler=0 / ip_ratio=1.40 / aq=1:1.00
Language : Serbian
Default : Yes
Forced : No
Color range : Limited
Color primaries : BT.601 PAL
Transfer characteristics : BT.709
Matrix coefficients : BT.601

Audio
ID : 2
Format : E-AC-3
Format/Info : Enhanced AC-3
Commercial name : Dolby Digital Plus
Codec ID : A_EAC3
Duration : 2 h 10 min
Bit rate mode : Constant
Bit rate : 256 kb/s
Channel(s) : 6 channels
Channel layout : L R C LFE Ls Rs
Sampling rate : 48.0 kHz
Frame rate : 31.250 FPS (1536 SPF)
Compression mode : Lossy
Stream size : 239 MiB (14%)
Title : Otac na sluzbenom putu (1985)
Language : Serbian
Service kind : Complete Main
Default : Yes
Forced : No

Hidden content
You need to react to this post in order to see this content.

 
Top